<?xml version="1.0" standalone="yes"?><svg version="1.1" xmlns = 'http://www.w3.org/2000/svg'><defs><font id='web' horiz-adv-x="1000">
<font-face font-family="web" descent="-285" cap-height="1634" units-per-em="2048" bbox="-182,-432,1870,2048" x-height="1126" ascent="1645" />
<missing-glyph horiz-adv-x="311" d="" /><glyph horiz-adv-x="1280" d="M 476 -32 C 342 -32 239 5 166 80 C 92 154 56 248 56 360 C 56 506 108 636 214 750 C 319 863 449 920 604 920 C 668 920 734 908 802 886 C 870 863 924 840 964 816 C 972 872 976 928 976 984 C 976 1109 953 1207 908 1278 C 862 1348 800 1384 720 1384 C 634 1384 567 1374 518 1356 C 468 1337 418 1312 368 1280 L 324 1444 C 374 1473 430 1498 492 1518 C 553 1538 629 1548 720 1548 C 877 1548 992 1496 1064 1394 C 1136 1291 1172 1149 1172 968 C 1172 690 1104 454 968 260 C 832 65 668 -32 476 -32 Z M 488 128 C 716 128 868 313 944 684 C 922 705 882 726 824 748 C 765 769 706 780 648 780 C 520 780 424 738 360 654 C 296 570 264 476 264 372 C 264 300 282 241 318 196 C 354 150 410 128 488 128 Z" unicode="∂" />
<glyph horiz-adv-x="1536" d="M 76 0 L 652 1536 L 884 1536 L 1456 0 L 76 0 Z M 352 148 L 1164 148 L 752 1256 L 352 148 Z" unicode="∆" />
<glyph horiz-adv-x="920" d="M 881 547 C 875 405 865 304 849 246 C 833 188 809 139 777 99 C 745 59 705 29 658 11 C 611 -6 556 -16 494 -16 C 387 -16 303 10 243 62 C 182 114 142 192 123 297 C 118 324 115 370 113 435 L 106 623 L 20 623 L 20 780 L 98 780 L 98 850 L 20 850 L 20 1008 L 104 1008 C 111 1212 119 1336 129 1380 C 151 1473 192 1541 252 1584 C 312 1627 392 1649 492 1649 C 686 1649 806 1556 852 1372 C 867 1304 877 1201 881 1063 L 594 1063 L 595 1175 L 595 1231 C 595 1295 586 1341 570 1369 C 554 1397 528 1411 494 1411 C 453 1411 425 1394 411 1361 C 396 1327 389 1262 389 1166 L 389 1008 L 561 1008 L 561 850 L 387 850 L 387 780 L 561 780 L 561 623 L 389 623 L 389 536 C 389 499 389 455 390 403 C 391 351 395 312 403 285 C 411 258 422 239 436 228 C 450 216 470 211 494 211 C 528 211 553 224 570 251 C 586 278 595 326 595 395 L 595 500 L 594 547 L 881 547 Z" unicode="€" />
<glyph horiz-adv-x="1536" d="M 332 0 L 332 1348 L 80 1348 L 80 1524 L 1456 1524 L 1456 1348 L 1212 1348 L 1212 0 L 1004 0 L 1004 1356 L 540 1356 L 540 0 L 332 0 Z" unicode="∏" />
<glyph horiz-adv-x="1152" d="M 1084 1524 L 1084 1344 L 332 1344 L 796 784 L 304 188 L 1080 188 L 1080 0 L 40 0 L 40 172 L 560 788 L 68 1380 L 68 1524 L 1084 1524 Z" unicode="∑" />
<glyph horiz-adv-x="743" d="M 717 684 L 25 684 L 25 922 L 717 922 L 717 684 Z" unicode="−" />
<glyph horiz-adv-x="604" d="M 578 602 L 27 602 L 27 868 L 578 868 L 578 602 Z" unicode="–" />
<glyph horiz-adv-x="948" d="M 848 602 L 100 602 L 100 868 L 848 868 L 848 602 Z" unicode="—" />
<glyph horiz-adv-x="244" d="M 424 1632 C 303 1193 224 918 186 807 C 171 765 144 674 105 534 C 65 394 17 216 -39 0 L -182 0 L -83 364 C -22 584 27 753 66 870 C 116 1032 188 1286 281 1632 L 424 1632 Z" unicode="∕" />
<glyph horiz-adv-x="362" d="M 328 1413 L 328 1073 L 41 1073 L 41 1425 L 217 1647 L 342 1559 L 264 1423 L 268 1413 L 328 1413 Z" unicode="‘" />
<glyph horiz-adv-x="362" d="M 41 1292 L 41 1634 L 328 1634 L 328 1280 L 152 1061 L 27 1149 L 104 1284 L 100 1292 L 41 1292 Z" unicode="’" />
<glyph horiz-adv-x="362" d="M 41 0 L 41 342 L 328 342 L 328 -12 L 152 -231 L 27 -143 L 104 -8 L 100 0 L 41 0 Z" unicode="‚" />
<glyph horiz-adv-x="705" d="M 664 1409 L 664 1073 L 381 1073 L 381 1421 L 559 1647 L 680 1559 L 600 1419 L 604 1411 L 664 1409 Z M 324 1411 L 324 1073 L 43 1073 L 43 1421 L 221 1647 L 344 1559 L 264 1419 L 268 1411 L 324 1411 Z" unicode="“" />
<glyph horiz-adv-x="705" d="M 385 1296 L 385 1634 L 666 1634 L 666 1284 L 489 1061 L 367 1149 L 446 1288 L 442 1296 L 385 1296 Z M 47 1296 L 47 1634 L 328 1634 L 328 1284 L 150 1061 L 29 1149 L 109 1288 L 104 1296 L 47 1296 Z" unicode="”" />
<glyph horiz-adv-x="705" d="M 385 0 L 385 338 L 666 338 L 666 -12 L 489 -236 L 367 -147 L 446 -8 L 442 0 L 385 0 Z M 47 0 L 47 338 L 328 338 L 328 -12 L 150 -236 L 29 -147 L 109 -8 L 104 0 L 47 0 Z" unicode="„" />
<glyph horiz-adv-x="311" d="" unicode=" " />
<glyph horiz-adv-x="432" d="M 369 1632 L 336 444 L 94 444 L 63 1632 L 369 1632 Z M 356 0 L 76 0 L 76 356 L 356 356 L 356 0 Z" unicode="!" />
<glyph horiz-adv-x="682" d="M 651 1634 L 641 993 L 389 993 L 379 1634 L 651 1634 Z M 295 1634 L 283 993 L 41 993 L 29 1634 L 295 1634 Z" unicode="&#x22;" />
<glyph horiz-adv-x="817" d="M 801 1081 L 780 874 L 639 874 L 621 711 L 770 711 L 750 506 L 600 506 L 549 -18 L 381 -18 L 432 506 L 319 506 L 268 -18 L 100 -18 L 152 506 L 10 506 L 33 711 L 172 711 L 188 874 L 41 874 L 63 1081 L 211 1081 L 260 1581 L 428 1581 L 379 1081 L 494 1081 L 541 1581 L 709 1581 L 686 1337 L 659 1081 L 801 1081 Z M 471 874 L 358 874 L 340 711 L 453 711 L 471 874 Z" unicode="#" />
<glyph horiz-adv-x="852" d="M 352 1624 L 352 1667 L 506 1667 L 506 1622 C 578 1612 637 1590 685 1555 C 732 1519 766 1471 787 1411 C 808 1350 819 1270 819 1172 L 819 1137 L 543 1137 C 543 1213 539 1266 532 1295 C 524 1324 512 1345 494 1358 C 476 1371 452 1378 424 1378 C 346 1378 307 1335 307 1251 C 307 1209 314 1173 328 1143 C 342 1113 366 1080 401 1045 C 435 1010 487 966 557 913 C 635 851 692 798 728 753 C 763 707 788 658 804 605 C 819 551 827 481 827 395 C 827 283 799 195 745 129 C 691 63 611 23 506 10 L 506 -100 L 352 -100 L 352 8 C 144 26 35 125 25 303 L 23 381 L 23 467 L 301 467 L 301 443 C 301 369 305 321 314 301 C 323 281 337 265 357 255 C 376 245 400 240 430 240 C 504 240 541 285 541 375 C 541 442 534 492 520 524 C 506 556 483 589 450 621 C 416 653 362 696 287 750 C 205 822 148 880 116 924 C 84 968 61 1014 47 1064 C 33 1113 27 1176 27 1253 C 27 1359 55 1445 113 1510 C 170 1574 250 1612 352 1624 Z" unicode="$" />
<glyph horiz-adv-x="1284" d="M 616 1128 C 616 1032 590 956 539 902 C 488 848 417 821 326 821 C 236 821 166 847 117 900 C 67 953 43 1029 43 1128 L 43 1350 C 43 1444 68 1519 119 1574 C 170 1629 241 1657 332 1657 C 420 1657 490 1630 540 1576 C 590 1522 616 1446 616 1350 L 616 1128 Z M 1057 1595 L 356 0 L 207 0 L 909 1595 L 1057 1595 Z M 1239 289 C 1239 191 1213 115 1163 63 C 1113 10 1040 -16 946 -16 C 857 -16 788 10 738 63 C 688 115 664 191 664 289 L 664 512 C 664 605 689 679 741 735 C 793 791 863 819 952 819 C 1042 819 1112 791 1163 736 C 1213 680 1239 606 1239 512 L 1239 289 Z M 416 1139 L 416 1348 C 416 1376 408 1400 393 1420 C 377 1440 357 1450 332 1450 C 302 1450 281 1440 267 1422 C 253 1403 246 1378 246 1348 L 246 1141 C 246 1061 274 1022 332 1022 C 388 1022 416 1061 416 1139 Z M 1038 301 L 1038 510 C 1038 540 1030 564 1015 583 C 1000 602 979 612 952 612 C 921 612 899 602 886 582 C 872 562 866 538 866 510 L 866 301 C 866 223 894 184 952 184 C 984 184 1006 194 1019 214 C 1031 234 1038 263 1038 301 Z" unicode="%" />
<glyph horiz-adv-x="1077" d="M 532 793 C 596 673 651 576 696 504 C 722 574 735 658 735 756 L 983 756 C 983 556 949 393 883 266 L 1075 0 L 756 0 L 705 86 C 630 20 537 -12 426 -12 C 299 -12 201 15 131 70 C 61 124 24 203 18 307 L 16 386 C 16 465 22 525 35 566 C 48 606 68 647 94 687 C 120 727 162 778 219 840 C 145 985 109 1109 109 1212 L 108 1295 L 109 1343 C 112 1434 144 1507 204 1561 C 264 1615 344 1642 444 1642 C 534 1642 607 1614 663 1560 C 718 1505 748 1434 752 1348 L 752 1243 C 750 1195 741 1149 726 1105 C 711 1061 691 1018 665 975 C 639 931 595 871 532 793 Z M 408 1012 C 471 1097 504 1174 506 1243 L 506 1307 C 503 1361 480 1389 438 1389 C 390 1389 365 1358 362 1298 L 360 1253 L 360 1225 L 362 1206 C 362 1153 377 1088 408 1012 Z M 360 616 C 310 541 285 468 285 397 C 285 335 296 292 319 266 C 341 240 381 227 438 227 C 484 227 521 241 549 270 C 513 328 450 444 360 616 Z" unicode="&#x26;" />
<glyph horiz-adv-x="379" d="M 326 1634 L 313 956 L 63 956 L 53 1634 L 326 1634 Z" unicode="'" />
<glyph horiz-adv-x="502" d="M 494 -143 L 199 -143 C 151 -33 112 102 80 266 C 48 429 33 590 33 748 C 33 890 49 1045 81 1212 C 113 1379 152 1520 199 1634 L 494 1634 C 448 1512 410 1367 378 1200 C 346 1033 330 881 330 743 C 330 601 345 447 375 283 C 405 119 445 -23 494 -143 Z" unicode="(" />
<glyph horiz-adv-x="502" d="M 475 748 C 475 590 459 431 428 269 C 396 107 357 -30 309 -143 L 12 -143 C 58 -31 97 107 129 271 C 160 435 176 592 176 743 C 176 875 160 1024 130 1190 C 99 1356 60 1504 12 1634 L 309 1634 C 359 1507 399 1362 429 1198 C 459 1034 475 884 475 748 Z" unicode=")" />
<glyph horiz-adv-x="860" d="M 514 1399 L 727 1491 L 786 1317 L 561 1231 L 721 1042 L 578 930 L 428 1122 L 279 932 L 135 1044 L 295 1229 L 70 1317 L 127 1491 L 344 1399 L 340 1649 L 518 1649 L 514 1399 Z" unicode="*" />
<glyph horiz-adv-x="743" d="M 717 684 L 492 684 L 492 430 L 252 430 L 252 684 L 25 684 L 25 924 L 252 924 L 252 1176 L 494 1176 L 494 924 L 717 924 L 717 684 Z" unicode="+" />
<glyph horiz-adv-x="440" d="M 369 -8 L 195 -225 L 55 -160 L 139 -6 L 135 0 L 70 0 L 70 369 L 369 369 L 369 -8 Z" unicode="," />
<glyph horiz-adv-x="614" d="M 596 657 L 18 657 L 18 946 L 596 946 L 596 657 Z" unicode="-" />
<glyph horiz-adv-x="440" d="M 373 0 L 68 0 L 68 369 L 373 369 L 373 0 Z" unicode="." />
<glyph horiz-adv-x="412" d="M 418 1636 L 127 -330 L -41 -330 L 248 1636 L 418 1636 Z" unicode="/" />
<glyph horiz-adv-x="874" d="M 438 1651 C 548 1651 637 1622 705 1565 C 773 1507 811 1431 819 1337 C 833 1155 840 982 840 819 C 840 730 837 637 832 539 C 826 441 820 368 813 319 C 783 95 658 -16 438 -16 C 325 -16 238 11 178 66 C 117 120 78 205 61 319 C 52 377 45 460 41 567 C 37 674 35 758 35 819 C 35 1073 41 1245 55 1335 C 87 1545 215 1651 438 1651 Z M 545 823 L 541 1268 C 537 1350 502 1391 436 1391 C 401 1391 375 1379 358 1357 C 340 1335 332 1304 332 1266 L 326 817 C 326 741 327 649 329 541 C 331 433 334 370 336 350 C 339 310 349 281 365 261 C 381 241 405 231 438 231 C 501 231 535 270 539 350 C 543 414 545 546 545 747 L 545 823 Z" unicode="0" />
<glyph horiz-adv-x="604" d="M 532 0 L 246 0 L 246 1253 L 20 1243 L 20 1479 C 172 1488 269 1540 311 1636 L 532 1636 L 532 0 Z" unicode="1" />
<glyph horiz-adv-x="852" d="M 819 0 L 33 0 L 33 254 C 51 295 76 338 107 382 C 137 426 170 472 205 520 C 240 567 276 616 312 666 C 348 716 380 767 410 820 C 439 873 463 928 482 984 C 501 1040 512 1097 514 1157 L 514 1274 C 514 1316 506 1346 492 1364 C 477 1382 452 1391 418 1391 C 356 1391 324 1356 322 1286 L 322 1094 L 35 1094 L 35 1210 L 36 1301 C 36 1407 73 1492 147 1556 C 221 1619 318 1651 438 1651 C 565 1651 661 1621 725 1561 C 789 1501 822 1413 822 1297 L 819 1133 C 815 1069 800 1003 774 935 C 748 867 714 796 671 724 C 628 651 542 529 414 358 C 386 321 365 290 352 264 L 819 264 L 819 0 Z" unicode="2" />
<glyph horiz-adv-x="850" d="M 535 874 C 583 870 626 861 662 845 C 698 829 729 807 754 779 C 779 750 797 716 808 678 C 819 640 825 568 825 463 C 825 397 823 343 819 299 C 809 200 770 123 700 67 C 630 11 535 -16 416 -16 C 323 -16 247 -1 188 28 C 128 57 85 100 59 158 C 33 215 20 336 20 520 L 307 520 L 306 399 C 306 323 314 274 330 254 C 346 233 373 223 410 223 C 476 223 512 258 516 328 L 520 471 C 520 549 515 602 507 630 C 498 657 482 677 459 691 C 436 705 404 713 362 715 L 335 715 L 213 717 L 213 973 L 371 973 C 397 975 418 979 435 987 C 452 995 465 1006 475 1022 C 485 1037 492 1056 497 1080 C 501 1103 504 1147 506 1212 L 504 1311 C 500 1341 491 1363 477 1376 C 463 1388 442 1395 416 1395 C 359 1395 328 1364 324 1303 C 320 1245 319 1186 319 1128 L 51 1128 L 51 1199 C 51 1274 53 1330 57 1366 C 65 1449 102 1517 167 1571 C 232 1624 317 1651 422 1651 C 531 1651 617 1625 680 1574 C 743 1522 778 1449 786 1354 L 788 1267 L 784 1155 C 779 1072 755 1006 711 958 C 667 910 609 882 535 874 Z" unicode="3" />
<glyph horiz-adv-x="889" d="M 883 334 L 750 334 L 750 0 L 473 0 L 473 334 L 14 334 L 14 602 L 436 1636 L 750 1636 L 750 586 L 883 586 L 883 334 Z M 473 586 L 473 1102 L 262 586 L 473 586 Z" unicode="4" />
<glyph horiz-adv-x="840" d="M 408 -16 C 288 -16 197 9 135 59 C 73 109 39 187 33 293 L 29 483 L 315 483 L 315 461 C 315 359 321 294 334 266 C 346 238 371 225 408 225 C 440 225 462 234 474 252 C 486 270 494 296 496 332 L 497 446 L 497 528 L 494 743 C 492 778 486 803 474 818 C 462 832 442 840 414 840 C 382 840 359 830 345 811 C 331 791 324 760 324 717 L 47 717 L 47 1634 L 760 1634 L 760 1364 L 311 1364 L 311 1014 C 327 1046 352 1070 385 1086 C 418 1102 464 1110 522 1110 C 601 1110 666 1087 716 1041 C 766 995 794 932 801 852 C 805 798 807 707 807 579 C 807 450 805 353 801 287 C 794 191 756 117 686 64 C 616 10 524 -16 408 -16 Z" unicode="5" />
<glyph horiz-adv-x="868" d="M 446 -16 C 257 -16 136 64 84 225 C 52 322 37 520 37 819 C 37 911 39 1007 44 1107 C 48 1207 53 1277 59 1317 C 75 1424 116 1506 181 1564 C 245 1622 331 1651 438 1651 C 501 1651 555 1642 601 1626 C 646 1610 684 1586 714 1556 C 744 1526 767 1488 783 1442 C 799 1396 807 1338 807 1266 L 807 1171 L 537 1171 L 537 1224 C 537 1276 530 1317 516 1347 C 502 1376 474 1391 434 1391 C 402 1391 377 1380 361 1360 C 344 1339 334 1306 331 1260 C 327 1214 325 1106 324 936 C 346 964 377 985 417 999 C 457 1013 499 1020 545 1020 C 614 1020 671 1004 715 973 C 759 941 789 899 805 846 C 821 792 829 686 829 526 C 827 375 818 274 801 223 C 750 63 632 -16 446 -16 Z M 538 505 L 535 684 C 532 716 524 740 511 756 C 497 772 475 780 444 780 C 415 780 390 770 368 750 C 346 730 331 705 324 674 L 328 491 L 334 334 C 340 262 374 227 438 227 C 496 227 529 259 535 324 L 538 505 Z" unicode="6" />
<glyph horiz-adv-x="741" d="M 735 1395 L 399 0 L 88 0 L 434 1364 L 6 1364 L 6 1634 L 735 1634 L 735 1395 Z" unicode="7" />
<glyph horiz-adv-x="877" d="M 434 -16 C 306 -16 211 7 147 54 C 83 101 44 182 31 297 C 27 325 26 370 26 430 C 26 526 29 604 36 665 C 43 725 62 775 94 813 C 125 851 163 877 209 891 C 185 896 163 907 143 925 C 123 942 106 964 94 991 C 81 1017 72 1047 68 1079 C 63 1111 61 1164 61 1236 C 61 1316 61 1364 63 1382 C 73 1472 110 1539 174 1584 C 238 1628 324 1651 434 1651 C 544 1651 633 1627 699 1580 C 765 1532 802 1466 811 1382 C 814 1348 816 1299 816 1235 C 814 1142 807 1076 795 1038 C 782 1000 763 968 739 942 C 714 916 686 898 655 889 C 683 883 710 871 737 851 C 763 831 785 807 803 779 C 821 750 833 719 839 687 C 845 654 849 588 849 489 C 849 423 847 359 844 297 C 837 197 799 119 730 65 C 661 11 562 -16 434 -16 Z M 528 1158 L 528 1213 C 528 1271 526 1310 524 1329 C 514 1379 484 1405 434 1405 C 413 1405 394 1399 377 1387 C 360 1375 350 1355 346 1329 L 343 1201 C 343 1161 343 1128 344 1102 C 345 1076 349 1054 356 1038 C 362 1022 372 1010 386 1004 C 399 998 415 995 434 995 C 490 995 520 1018 524 1065 L 528 1158 Z M 549 497 C 549 599 545 662 538 686 C 530 710 518 727 500 738 C 482 748 460 754 434 754 C 406 754 382 746 362 732 C 342 717 330 690 326 651 C 322 611 321 558 321 492 C 321 435 322 386 325 344 C 328 302 339 272 358 254 C 377 236 402 227 434 227 C 462 227 486 234 505 248 C 524 262 536 283 541 309 C 546 335 549 397 549 497 Z" unicode="8" />
<glyph horiz-adv-x="858" d="M 420 -16 C 358 -16 303 -7 257 9 C 210 25 171 50 140 84 C 109 118 87 159 73 208 C 59 257 53 337 53 449 L 326 449 L 326 384 C 326 325 333 285 348 264 C 363 243 390 233 428 233 C 458 233 482 242 500 262 C 518 281 528 310 530 348 L 535 649 L 535 680 C 488 628 418 602 326 602 C 261 602 206 615 160 642 C 114 668 83 709 65 764 C 47 818 39 928 39 1093 C 39 1201 44 1288 54 1354 C 63 1420 84 1474 118 1518 C 151 1561 194 1594 247 1617 C 300 1639 361 1651 430 1651 C 611 1651 726 1575 776 1425 C 791 1377 803 1300 812 1192 C 820 1084 825 967 825 840 C 825 744 822 641 818 531 C 813 420 807 343 801 301 C 765 89 638 -16 420 -16 Z M 536 949 C 536 1043 534 1121 532 1182 C 530 1242 528 1279 528 1292 C 522 1360 488 1395 426 1395 C 406 1395 389 1390 374 1381 C 359 1372 348 1360 340 1344 C 332 1328 327 1300 326 1262 C 324 1224 324 1174 324 1114 C 324 1021 324 963 326 939 C 328 915 333 896 342 881 C 351 866 363 855 378 847 C 392 839 410 836 430 836 C 455 836 477 842 495 855 C 513 868 527 886 535 909 L 536 949 Z" unicode="9" />
<glyph horiz-adv-x="422" d="M 354 752 L 76 752 L 76 1102 L 354 1102 L 354 752 Z M 354 0 L 76 0 L 76 350 L 354 350 L 354 0 Z" unicode=":" />
<glyph horiz-adv-x="422" d="M 354 752 L 82 752 L 82 1102 L 354 1102 L 354 752 Z M 354 -4 L 186 -229 L 61 -150 L 139 -6 L 133 0 L 82 0 L 82 350 L 354 350 L 354 -4 Z" unicode=";" />
<glyph horiz-adv-x="764" d="M 717 600 L 717 352 L 31 625 L 31 903 L 717 1176 L 717 924 L 268 764 L 717 600 Z" unicode="&#x3C;" />
<glyph horiz-adv-x="733" d="M 709 852 L 29 852 L 29 1081 L 709 1081 L 709 852 Z M 709 510 L 29 510 L 29 739 L 709 739 L 709 510 Z" unicode="=" />
<glyph horiz-adv-x="764" d="M 41 352 L 41 600 L 489 764 L 41 924 L 41 1176 L 727 903 L 727 625 L 41 352 Z" unicode="&#x3E;" />
<glyph horiz-adv-x="801" d="M 472 475 L 473 444 L 238 444 L 236 508 C 236 663 273 797 347 911 C 401 995 436 1055 452 1089 C 467 1123 475 1160 477 1200 L 477 1319 C 475 1351 468 1375 455 1392 C 441 1408 418 1417 385 1417 C 363 1417 346 1412 332 1404 C 318 1395 307 1382 301 1366 C 294 1350 291 1312 291 1252 L 291 1178 L 29 1178 C 29 1272 31 1342 35 1386 C 42 1467 78 1531 142 1578 C 206 1625 294 1649 406 1649 C 635 1649 756 1559 768 1380 L 770 1285 L 768 1188 C 766 1139 753 1091 731 1045 C 708 998 668 936 611 859 C 518 734 472 606 472 475 Z M 502 0 L 217 0 L 217 356 L 502 356 L 502 0 Z" unicode="?" />
<glyph horiz-adv-x="1452" d="M 1063 367 C 1007 367 964 380 932 407 C 900 434 881 473 877 524 C 851 474 815 435 767 409 C 719 382 664 369 602 369 C 516 369 450 395 404 448 C 358 501 334 577 334 676 C 334 770 350 857 382 938 C 414 1018 459 1081 518 1126 C 576 1171 643 1194 717 1194 C 767 1194 808 1183 840 1161 C 872 1139 893 1110 905 1075 L 926 1165 L 1112 1167 C 1102 1100 1074 946 1028 705 C 1024 683 1023 663 1023 645 C 1023 583 1051 553 1106 553 C 1160 553 1202 585 1232 650 C 1261 714 1276 804 1276 918 C 1276 1088 1233 1220 1148 1316 C 1063 1412 946 1460 797 1460 C 677 1460 568 1429 470 1368 C 372 1307 295 1221 239 1109 C 183 997 156 865 156 711 C 156 507 203 351 298 243 C 393 134 528 80 702 80 C 849 80 981 125 1098 215 L 1153 121 C 1077 66 1002 28 930 7 C 858 -14 780 -25 696 -25 C 487 -25 325 39 210 167 C 95 295 38 477 38 713 C 38 847 56 964 94 1066 C 131 1167 184 1255 253 1329 C 321 1403 403 1460 498 1500 C 592 1540 695 1561 805 1561 C 927 1561 1034 1534 1126 1482 C 1218 1429 1289 1353 1340 1253 C 1391 1153 1417 1040 1417 913 C 1417 807 1402 713 1374 629 C 1345 545 1304 480 1250 435 C 1196 389 1134 367 1063 367 Z M 848 887 C 848 920 837 948 817 970 C 797 992 771 1004 741 1004 C 705 1004 671 990 641 962 C 611 934 588 895 572 846 C 556 797 549 740 549 674 C 549 597 583 559 651 559 C 692 559 727 573 756 603 C 785 632 808 683 824 756 C 840 828 848 872 848 887 Z" unicode="@" />
<glyph horiz-adv-x="936" d="M 356 395 L 299 0 L 0 0 L 272 1634 L 692 1634 L 936 0 L 633 0 L 580 395 L 356 395 Z M 553 637 L 522 875 L 492 1120 C 484 1168 479 1250 477 1368 C 475 1267 469 1184 459 1120 L 385 637 L 553 637 Z" unicode="A" />
<glyph horiz-adv-x="975" d="M 549 0 L 63 0 L 63 1634 L 580 1634 C 699 1634 784 1604 834 1546 C 884 1487 909 1386 909 1243 C 909 1143 902 1067 888 1015 C 874 963 855 923 830 896 C 804 869 768 852 721 844 C 777 836 821 816 853 783 C 884 750 906 706 919 650 C 931 594 938 526 938 446 C 938 367 931 299 919 242 C 906 184 885 138 857 102 C 828 66 791 40 745 24 C 699 8 634 0 549 0 Z M 600 1169 C 600 1239 591 1293 574 1332 C 557 1371 530 1391 494 1391 L 356 1391 L 356 934 L 514 934 C 529 934 543 941 556 955 C 569 969 578 985 583 1004 C 587 1023 591 1047 595 1077 C 598 1106 600 1137 600 1169 Z M 618 479 C 618 514 615 550 610 586 C 605 622 597 647 587 661 C 577 675 565 685 552 693 C 538 701 524 705 508 705 L 356 705 L 356 244 L 502 244 C 543 244 573 258 591 288 C 609 317 618 381 618 479 Z" unicode="B" />
<glyph horiz-adv-x="940" d="M 911 590 C 911 442 903 336 888 270 C 873 204 849 150 815 109 C 781 67 737 36 682 14 C 626 -7 559 -18 481 -18 C 314 -18 198 35 134 141 C 69 247 37 475 37 825 C 37 983 44 1114 59 1218 C 74 1322 92 1396 112 1442 C 132 1487 160 1525 195 1556 C 230 1586 273 1609 323 1624 C 373 1639 431 1647 498 1647 C 596 1647 676 1627 738 1589 C 799 1551 843 1492 869 1412 C 895 1332 909 1206 909 1034 L 618 1034 C 618 1097 614 1157 608 1213 C 601 1269 593 1304 583 1320 C 573 1335 561 1346 546 1354 C 530 1362 512 1366 492 1366 C 428 1366 388 1336 373 1276 C 357 1213 350 1063 350 827 C 350 708 352 610 356 532 C 360 454 365 396 372 359 C 379 322 394 296 416 280 C 438 264 463 256 492 256 C 560 256 598 292 608 365 C 616 432 621 507 621 590 L 911 590 Z" unicode="C" />
<glyph horiz-adv-x="934" d="M 522 0 L 63 0 L 63 1634 L 485 1634 C 569 1634 638 1622 690 1600 C 742 1577 787 1539 823 1485 C 847 1449 865 1382 878 1283 C 890 1184 897 1040 897 852 C 897 688 894 563 888 477 C 882 391 873 319 861 262 C 849 205 827 156 797 116 C 766 76 728 46 683 28 C 638 9 584 0 522 0 Z M 610 852 C 610 938 608 1027 604 1118 C 600 1209 595 1264 590 1284 C 581 1318 567 1342 549 1357 C 531 1372 507 1380 477 1380 L 358 1380 L 358 236 L 489 236 C 544 236 578 263 592 319 C 597 347 601 416 605 526 C 608 636 610 745 610 852 Z" unicode="D" />
<glyph horiz-adv-x="813" d="M 788 0 L 63 0 L 63 1634 L 784 1634 L 784 1354 L 362 1354 L 362 956 L 756 956 L 756 690 L 362 690 L 362 276 L 788 276 L 788 0 Z" unicode="E" />
<glyph horiz-adv-x="801" d="M 786 1354 L 362 1354 L 362 956 L 754 956 L 754 682 L 362 682 L 362 0 L 63 0 L 63 1634 L 786 1634 L 786 1354 Z" unicode="F" />
<glyph horiz-adv-x="940" d="M 907 0 L 686 0 L 672 74 C 627 15 544 -14 422 -14 C 354 -14 294 0 242 29 C 190 57 148 98 118 152 C 88 206 67 289 55 402 C 43 514 37 651 37 813 C 37 1053 47 1226 69 1332 C 90 1437 136 1516 208 1569 C 280 1622 370 1649 479 1649 C 558 1649 626 1637 684 1615 C 741 1592 786 1559 818 1517 C 850 1475 871 1419 881 1349 C 890 1279 895 1188 895 1075 L 602 1075 L 602 1101 C 602 1166 599 1227 594 1284 C 587 1350 551 1384 485 1384 C 420 1384 383 1350 373 1284 C 357 1182 350 1025 350 813 C 350 669 352 562 357 492 C 362 422 369 369 377 335 C 385 301 398 276 416 261 C 434 245 460 238 492 238 C 530 238 560 248 583 270 C 605 291 618 323 621 365 L 622 427 L 622 528 L 621 666 L 455 666 L 455 924 L 903 924 L 903 381 L 905 121 L 907 0 Z" unicode="G" />
<glyph horiz-adv-x="961" d="M 897 0 L 598 0 L 598 686 L 360 686 L 360 0 L 63 0 L 63 1634 L 360 1634 L 360 952 L 598 952 L 598 1634 L 897 1634 L 897 0 Z" unicode="H" />
<glyph horiz-adv-x="436" d="M 375 0 L 63 0 L 63 1634 L 375 1634 L 375 0 Z" unicode="I" />
<glyph horiz-adv-x="610" d="M 553 338 C 553 217 523 129 465 73 C 406 17 311 -10 180 -10 C 145 -10 119 -9 102 -8 C 84 -7 56 -4 16 2 L 16 258 L 104 253 C 149 253 181 258 200 268 C 218 278 232 293 242 312 C 251 330 256 353 256 381 L 256 1634 L 553 1634 L 553 338 Z" unicode="J" />
<glyph horiz-adv-x="973" d="M 973 0 L 662 0 L 426 662 L 360 537 L 360 0 L 63 0 L 63 1634 L 360 1634 L 360 985 L 680 1634 L 971 1634 L 625 936 L 973 0 Z" unicode="K" />
<glyph horiz-adv-x="807" d="M 795 0 L 63 0 L 63 1634 L 362 1634 L 362 276 L 795 276 L 795 0 Z" unicode="L" />
<glyph horiz-adv-x="1292" d="M 1231 0 L 958 0 L 961 1008 L 780 0 L 516 0 L 336 1006 L 338 0 L 63 0 L 63 1634 L 463 1634 L 649 604 L 846 1634 L 1231 1634 L 1231 0 Z" unicode="M" />
<glyph horiz-adv-x="946" d="M 883 0 L 600 0 L 342 815 L 342 0 L 63 0 L 63 1634 L 348 1634 L 604 836 L 604 1634 L 883 1634 L 883 0 Z" unicode="N" />
<glyph horiz-adv-x="961" d="M 479 1647 C 567 1647 640 1633 699 1607 C 757 1581 803 1540 837 1486 C 871 1432 894 1359 906 1269 C 918 1179 924 1033 924 831 C 924 727 922 636 918 558 C 914 480 905 397 891 307 C 853 90 716 -18 479 -18 C 366 -18 276 6 210 54 C 143 102 97 176 73 277 C 49 377 37 559 37 821 C 37 977 39 1088 43 1154 C 47 1220 53 1275 63 1319 C 111 1537 250 1647 479 1647 Z M 483 244 C 542 244 580 276 598 340 C 616 404 625 563 625 817 C 625 931 623 1022 619 1089 C 615 1155 609 1212 602 1260 C 594 1308 582 1340 564 1357 C 546 1373 519 1382 483 1382 C 436 1382 404 1365 386 1332 C 368 1299 357 1242 351 1161 C 345 1080 342 964 342 813 C 342 659 345 541 352 458 C 359 374 372 318 391 288 C 410 258 441 244 483 244 Z" unicode="O" />
<glyph horiz-adv-x="934" d="M 903 1126 C 903 987 889 883 863 815 C 836 747 792 697 730 665 C 668 633 572 618 440 618 L 365 618 L 365 0 L 63 0 L 63 1634 L 549 1634 C 665 1634 753 1598 813 1527 C 873 1456 903 1322 903 1126 Z M 602 1114 C 602 1218 592 1284 572 1314 C 552 1343 524 1358 487 1358 L 365 1358 L 365 874 L 479 874 C 529 874 562 887 578 914 C 594 940 602 1007 602 1114 Z" unicode="P" />
<glyph horiz-adv-x="961" d="M 737 49 L 786 6 C 827 -24 851 -41 858 -43 L 694 -260 C 680 -252 651 -230 607 -196 C 562 -161 524 -129 494 -100 C 464 -71 433 -41 403 -10 C 305 0 229 34 173 90 C 117 146 80 228 63 334 C 45 440 37 603 37 821 C 37 977 39 1088 43 1154 C 47 1220 53 1275 63 1319 C 111 1537 250 1647 479 1647 C 567 1647 640 1633 699 1607 C 757 1581 803 1540 837 1486 C 871 1432 894 1359 906 1269 C 918 1179 924 1033 924 831 C 924 731 922 643 919 569 C 915 494 908 419 896 345 C 884 271 866 210 841 164 C 816 117 781 79 737 49 Z M 483 236 C 520 236 548 247 567 270 C 586 292 599 324 606 366 C 612 408 617 467 620 544 C 623 620 625 710 625 813 C 625 928 623 1020 619 1088 C 615 1156 609 1213 602 1261 C 594 1309 581 1341 563 1357 C 545 1373 518 1382 483 1382 C 434 1382 401 1364 384 1329 C 367 1293 356 1231 350 1143 C 344 1055 342 943 342 809 C 342 654 345 535 352 451 C 359 367 372 310 391 280 C 409 250 440 236 483 236 Z" unicode="Q" />
<glyph horiz-adv-x="952" d="M 891 1161 C 891 1038 878 946 852 885 C 826 823 789 782 741 762 L 940 0 L 631 0 L 467 680 L 360 680 L 360 0 L 63 0 L 63 1634 L 555 1634 C 628 1634 691 1617 745 1584 C 798 1551 836 1498 858 1425 C 880 1352 891 1264 891 1161 Z M 590 1133 C 590 1191 587 1241 582 1284 C 570 1336 541 1362 496 1362 L 360 1362 L 360 932 L 428 932 L 504 934 C 542 938 565 955 573 985 C 584 1009 590 1059 590 1133 Z" unicode="R" />
<glyph horiz-adv-x="881" d="M 852 383 C 852 259 815 161 741 89 C 667 17 568 -18 442 -18 C 350 -18 273 -5 212 19 C 151 44 105 82 74 133 C 42 183 27 259 27 359 L 27 465 L 311 465 C 311 381 312 332 315 319 C 325 259 365 229 434 229 C 474 229 504 239 525 261 C 546 283 557 314 557 356 C 557 420 546 474 524 518 C 502 562 459 614 395 674 L 248 805 C 160 880 100 951 69 1018 C 38 1085 23 1166 23 1260 C 23 1381 60 1476 135 1546 C 209 1616 310 1651 436 1651 C 501 1651 558 1642 606 1624 C 654 1606 693 1581 725 1550 C 757 1518 782 1481 800 1437 C 818 1393 829 1340 835 1279 C 841 1217 844 1174 844 1149 L 557 1149 C 557 1247 548 1311 530 1342 C 512 1373 480 1389 434 1389 C 394 1389 364 1379 344 1360 C 324 1340 315 1309 315 1266 C 315 1220 327 1175 352 1131 C 377 1087 419 1039 477 989 L 596 882 C 694 794 762 713 798 641 C 834 569 852 483 852 383 Z" unicode="S" />
<glyph horiz-adv-x="813" d="M 809 1354 L 557 1354 L 557 0 L 254 0 L 254 1354 L 6 1354 L 6 1634 L 809 1634 L 809 1354 Z" unicode="T" />
<glyph horiz-adv-x="944" d="M 889 369 C 889 249 852 154 779 86 C 705 18 605 -16 477 -16 C 343 -16 239 18 165 86 C 90 154 53 249 53 373 L 53 1634 L 350 1634 L 350 381 C 350 289 391 244 473 244 C 510 244 539 255 559 279 C 579 302 590 335 590 379 L 590 1634 L 889 1634 L 889 369 Z" unicode="U" />
<glyph horiz-adv-x="934" d="M 930 1634 L 647 0 L 272 0 L 2 1634 L 307 1634 L 469 418 L 629 1634 L 930 1634 Z" unicode="V" />
<glyph horiz-adv-x="1409" d="M 1407 1634 L 1184 0 L 829 0 C 747 597 704 936 702 1018 C 702 920 659 580 575 0 L 229 0 L 0 1634 L 305 1634 C 384 936 424 539 424 442 C 424 497 439 655 469 916 C 499 1176 528 1416 557 1634 L 854 1634 C 948 935 995 538 995 442 C 995 542 1033 939 1110 1634 L 1407 1634 Z" unicode="W" />
<glyph horiz-adv-x="963" d="M 473 479 L 287 0 L 4 0 L 344 825 L 27 1634 L 328 1634 L 492 1196 L 666 1634 L 948 1634 L 627 848 L 956 0 L 655 0 L 473 479 Z" unicode="X" />
<glyph horiz-adv-x="985" d="M 985 1634 L 633 612 L 633 0 L 334 0 L 334 606 L 0 1634 L 305 1634 L 448 1094 L 483 952 L 500 1006 L 690 1634 L 985 1634 Z" unicode="Y" />
<glyph horiz-adv-x="838" d="M 825 0 L 18 0 L 18 248 L 481 1354 L 51 1354 L 51 1634 L 815 1634 L 815 1391 L 348 276 L 825 276 L 825 0 Z" unicode="Z" />
<glyph horiz-adv-x="479" d="M 455 -336 L 55 -336 L 55 1634 L 455 1634 L 455 1407 L 319 1407 L 319 -119 L 455 -119 L 455 -336 Z" unicode="[" />
<glyph horiz-adv-x="412" d="M -6 1636 L 164 1636 L 455 -330 L 287 -330 L -6 1636 Z" unicode="\" />
<glyph horiz-adv-x="481" d="M 27 -336 L 27 -119 L 160 -119 L 160 1411 L 27 1411 L 27 1634 L 424 1634 L 424 -336 L 27 -336 Z" unicode="]" />
<glyph horiz-adv-x="930" d="M 465 1419 L 188 1106 L 23 1268 L 350 1645 L 582 1645 L 909 1268 L 741 1106 L 465 1419 Z" unicode="^" />
<glyph horiz-adv-x="676" d="M 676 -326 L 0 -326 L 0 -82 L 676 -82 L 676 -326 Z" unicode="_" />
<glyph horiz-adv-x="768" d="M 563 1200 L 305 1200 L 129 1499 L 422 1499 L 563 1200 Z" unicode="`" />
<glyph horiz-adv-x="807" d="M 770 0 L 510 0 C 508 0 505 10 503 31 C 501 52 500 69 500 82 C 452 22 376 -8 272 -8 C 196 -8 137 11 95 49 C 52 87 29 139 27 205 L 25 282 L 25 336 C 25 392 32 438 46 474 C 60 510 81 543 109 571 C 137 599 171 623 212 642 C 252 661 298 675 350 685 C 401 695 450 700 496 700 L 496 767 L 494 836 C 491 887 464 913 414 913 C 378 913 354 903 340 884 C 326 864 319 835 319 797 L 319 733 L 66 733 L 66 817 C 66 927 94 1008 151 1061 C 208 1114 297 1141 418 1141 C 529 1141 613 1118 669 1074 C 725 1030 755 966 758 883 L 760 698 L 756 201 C 756 79 760 12 770 0 Z M 496 514 C 460 514 429 510 402 503 C 375 495 354 485 339 473 C 323 460 313 446 307 432 C 301 417 299 393 299 360 C 299 296 301 257 306 244 C 311 230 321 220 335 214 C 349 208 365 205 383 205 C 407 205 428 211 447 224 C 465 236 477 254 483 278 C 489 302 492 334 493 376 C 494 417 495 442 497 451 L 497 475 L 496 514 Z" unicode="a" />
<glyph horiz-adv-x="836" d="M 528 1141 C 592 1141 646 1124 688 1092 C 730 1059 760 1007 778 937 C 796 866 805 748 805 582 C 805 454 794 335 774 225 C 762 157 732 101 686 59 C 639 17 583 -4 518 -4 C 470 -4 429 2 396 14 C 362 26 333 46 309 76 L 279 0 L 53 0 L 53 1636 L 319 1636 L 319 1034 C 332 1066 357 1091 394 1111 C 431 1131 476 1141 528 1141 Z M 428 907 C 400 907 376 896 358 876 C 339 856 329 832 328 805 C 320 687 317 608 317 567 C 317 402 323 299 335 259 C 347 219 378 199 426 199 C 477 199 507 226 515 280 C 523 334 528 430 528 567 L 528 639 C 528 759 520 833 505 863 C 490 892 464 907 428 907 Z" unicode="b" />
<glyph horiz-adv-x="782" d="M 756 668 L 500 668 C 500 706 497 746 492 787 C 487 827 481 855 473 870 C 465 885 456 895 444 901 C 432 906 419 909 403 909 C 375 909 354 900 339 882 C 324 864 314 823 309 761 C 303 699 301 632 301 561 C 301 495 303 430 309 366 C 314 302 323 260 337 242 C 351 224 374 215 406 215 C 438 215 462 227 478 253 C 494 279 502 330 502 407 L 502 453 L 756 453 C 756 365 753 304 748 270 C 743 236 733 199 718 161 C 702 122 680 90 651 65 C 622 39 587 20 545 6 C 503 -7 456 -14 406 -14 C 337 -14 278 -3 230 16 C 181 36 143 66 115 104 C 87 142 67 205 53 292 C 39 379 33 469 33 563 C 33 640 36 704 42 756 C 48 807 59 861 76 917 C 92 973 115 1016 145 1046 C 174 1076 210 1100 253 1116 C 295 1132 345 1141 401 1141 C 471 1141 530 1131 579 1111 C 628 1091 666 1061 693 1023 C 719 984 736 940 744 891 C 752 842 756 768 756 668 Z" unicode="c" />
<glyph horiz-adv-x="821" d="M 319 1137 C 363 1137 402 1129 436 1113 C 470 1097 494 1074 510 1044 L 510 1636 L 778 1636 L 778 158 C 778 124 780 72 786 0 L 557 0 L 524 82 C 484 22 416 -8 319 -8 C 247 -8 191 10 151 47 C 110 83 80 145 61 233 C 42 321 33 429 33 559 C 33 647 36 720 42 778 C 48 836 58 894 74 954 C 89 1014 119 1059 163 1090 C 207 1121 259 1137 319 1137 Z M 408 903 C 359 903 329 879 319 831 C 307 764 301 673 301 557 C 301 445 305 352 315 279 C 322 232 352 209 406 209 C 455 209 485 238 496 296 C 506 354 512 441 512 557 C 512 613 510 662 508 704 C 506 745 500 791 492 842 C 482 882 454 903 408 903 Z" unicode="d" />
<glyph horiz-adv-x="791" d="M 758 367 C 758 320 751 270 737 218 C 723 165 701 122 671 88 C 641 54 605 28 561 11 C 517 -5 467 -14 412 -14 C 262 -14 161 28 110 113 C 58 198 33 346 33 557 C 33 778 61 931 119 1015 C 177 1099 273 1141 408 1141 C 494 1141 565 1120 622 1080 C 678 1039 717 981 737 905 C 757 829 767 722 767 584 L 764 469 L 299 469 C 299 397 301 335 307 285 C 309 262 318 243 336 228 C 353 212 375 205 401 205 C 423 205 443 210 462 220 C 480 230 493 250 499 280 C 505 309 508 338 508 367 L 758 367 Z M 506 670 C 506 780 498 848 483 875 C 468 901 441 915 403 915 C 376 915 354 908 338 894 C 321 880 310 860 304 833 C 298 806 295 752 295 670 L 506 670 Z" unicode="e" />
<glyph horiz-adv-x="539" d="M 532 887 L 385 887 L 385 0 L 111 0 L 111 887 L 10 887 L 10 1126 L 111 1126 L 111 1370 C 111 1459 134 1527 181 1574 C 227 1621 295 1645 385 1645 C 457 1645 511 1642 547 1638 L 547 1415 C 520 1419 493 1421 465 1421 C 439 1421 420 1412 406 1395 C 392 1378 385 1358 385 1335 L 385 1126 L 532 1126 L 532 887 Z" unicode="f" />
<glyph horiz-adv-x="860" d="M 420 1145 C 479 1145 531 1138 575 1124 C 619 1110 652 1090 674 1065 C 692 1087 717 1103 749 1115 C 781 1127 816 1133 856 1133 L 868 1133 L 868 971 C 858 971 836 970 801 969 C 765 968 748 967 748 965 C 755 949 761 928 767 900 C 773 872 776 846 776 823 L 776 776 C 776 688 773 625 768 588 C 755 513 720 454 664 412 C 607 369 531 348 436 348 C 381 348 331 359 287 383 C 271 381 260 375 252 367 C 244 358 240 348 240 336 C 240 314 252 300 276 294 C 300 288 365 285 469 285 C 602 285 701 263 765 219 C 829 175 862 104 862 6 C 862 -88 826 -160 754 -210 C 682 -260 576 -285 438 -285 C 152 -285 10 -209 10 -59 C 10 -15 21 20 45 47 C 68 74 104 97 154 115 C 107 121 73 138 52 168 C 30 198 20 233 20 274 C 20 313 32 348 58 380 C 83 412 115 434 154 446 C 136 456 119 474 103 500 C 87 526 77 553 71 583 C 65 613 62 669 62 752 L 62 845 C 62 939 94 1013 160 1066 C 226 1118 312 1145 420 1145 Z M 422 920 C 364 920 334 891 332 834 L 331 730 L 331 664 L 332 621 C 334 566 364 539 422 539 C 479 539 509 566 512 621 L 513 662 L 513 799 L 512 848 C 508 896 478 920 422 920 Z M 432 -86 C 496 -86 544 -79 575 -66 C 605 -53 621 -32 621 -2 C 621 18 612 34 594 45 C 576 55 546 63 504 68 C 461 72 421 75 383 75 L 338 75 L 305 76 C 279 61 264 51 258 45 C 252 39 248 32 246 24 C 243 15 242 5 242 -6 C 242 -34 256 -54 286 -67 C 315 -79 364 -86 432 -86 Z" unicode="g" />
<glyph horiz-adv-x="813" d="M 770 0 L 496 0 L 494 114 L 494 817 C 494 873 468 901 416 901 C 388 901 366 891 349 872 C 332 852 324 823 324 784 L 324 0 L 53 0 L 53 1636 L 324 1636 L 324 1022 C 356 1101 424 1141 530 1141 C 606 1141 664 1117 705 1071 C 745 1025 766 956 766 866 L 766 512 C 766 170 767 0 770 0 Z" unicode="h" />
<glyph horiz-adv-x="391" d="M 340 1186 L 51 1186 L 51 1462 L 340 1462 L 340 1186 Z M 342 0 L 66 0 C 60 0 57 7 56 22 C 55 36 55 55 55 78 L 55 1126 L 336 1126 L 336 82 C 336 31 338 4 342 0 Z" unicode="i" />
<glyph horiz-adv-x="393" d="M 340 1186 L 53 1186 L 53 1462 L 340 1462 L 340 1186 Z M 336 -111 C 336 -189 312 -250 264 -293 C 216 -336 148 -358 61 -358 C -24 -358 -76 -354 -94 -348 L -94 -119 L -39 -119 C -5 -119 19 -113 35 -101 C 51 -89 59 -67 59 -37 L 59 1126 L 336 1126 L 336 -111 Z" unicode="j" />
<glyph horiz-adv-x="817" d="M 819 0 L 545 0 L 403 467 L 324 338 L 324 0 L 53 0 L 53 1636 L 324 1636 L 324 694 L 543 1126 L 809 1126 L 596 717 L 819 0 Z" unicode="k" />
<glyph horiz-adv-x="371" d="M 334 0 L 196 -1 L 102 -1 L 59 0 C 51 6 47 32 47 78 L 47 1566 C 47 1602 45 1626 41 1636 L 317 1636 C 321 1629 324 1606 324 1567 L 324 84 C 324 32 327 4 334 0 Z" unicode="l" />
<glyph horiz-adv-x="1214" d="M 903 0 L 901 115 L 901 821 C 901 877 877 905 829 905 C 804 905 784 895 768 877 C 752 858 745 835 745 807 L 745 0 L 481 0 L 481 825 C 481 878 458 905 412 905 C 386 905 365 895 349 875 C 332 855 324 829 324 799 L 324 0 L 53 0 L 53 1126 L 317 1126 L 317 1020 C 330 1055 355 1084 392 1108 C 428 1131 477 1143 537 1143 C 631 1143 695 1099 727 1012 C 744 1055 772 1088 810 1110 C 848 1132 894 1143 946 1143 C 1090 1143 1163 1063 1163 905 L 1166 7 L 1165 0 L 903 0 Z" unicode="m" />
<glyph horiz-adv-x="815" d="M 772 0 L 502 0 C 498 0 496 37 495 111 C 494 185 494 305 494 472 L 494 809 C 494 870 469 901 420 901 C 393 901 370 891 352 871 C 333 851 324 818 324 772 L 324 0 L 53 0 L 53 1126 L 317 1126 L 317 1016 C 329 1054 355 1085 394 1107 C 432 1129 478 1141 532 1141 C 688 1141 766 1053 766 879 L 766 513 C 766 171 768 0 772 0 Z" unicode="n" />
<glyph horiz-adv-x="817" d="M 782 565 C 782 341 751 189 691 108 C 631 26 536 -14 406 -14 C 354 -14 306 -6 264 8 C 222 22 185 43 155 71 C 125 98 101 131 84 170 C 66 209 53 267 44 344 C 35 420 31 494 31 565 C 31 656 38 742 52 824 C 66 905 88 967 118 1009 C 147 1051 187 1083 237 1106 C 287 1129 344 1141 410 1141 C 501 1141 576 1120 634 1079 C 692 1037 732 976 752 896 C 772 815 782 705 782 565 Z M 516 561 C 516 607 514 661 512 725 C 509 789 505 828 501 843 C 497 858 491 870 483 880 C 475 890 466 897 454 902 C 442 906 426 909 408 909 C 358 909 327 882 313 829 C 305 793 301 703 301 561 C 301 491 302 428 305 372 C 307 316 312 279 320 262 C 327 245 338 232 353 223 C 367 213 386 209 408 209 C 433 209 454 217 472 233 C 490 249 500 267 504 289 C 511 338 515 385 515 429 C 515 473 516 517 516 561 Z" unicode="o" />
<glyph horiz-adv-x="836" d="M 805 582 C 805 450 797 340 781 254 C 765 167 735 103 691 61 C 647 19 588 -2 516 -2 C 430 -2 365 19 322 63 L 322 -334 L 53 -334 L 53 1126 L 313 1126 L 315 1040 C 330 1071 356 1096 393 1114 C 429 1132 474 1141 526 1141 C 596 1141 651 1123 690 1088 C 729 1053 758 993 777 907 C 795 821 805 713 805 582 Z M 528 573 C 528 703 521 794 508 846 C 496 886 468 907 424 907 C 396 907 376 897 362 877 C 348 857 337 821 330 768 C 322 715 319 650 319 573 C 319 451 324 358 336 295 C 344 243 372 217 422 217 C 458 217 485 234 502 268 C 519 302 528 403 528 573 Z" unicode="p" />
<glyph horiz-adv-x="827" d="M 791 -334 L 526 -334 L 512 -311 L 512 78 C 496 52 473 32 441 16 C 409 0 369 -8 322 -8 C 216 -8 142 34 98 118 C 54 202 33 349 33 559 C 33 655 35 729 41 781 C 47 832 59 888 79 950 C 98 1011 129 1057 171 1089 C 213 1121 266 1137 328 1137 C 373 1137 411 1129 441 1115 C 471 1100 497 1076 518 1042 L 518 1128 L 780 1128 L 780 -184 C 780 -220 782 -254 786 -285 L 791 -334 Z M 514 571 C 514 721 507 814 493 850 C 479 885 454 903 416 903 C 360 903 327 875 319 819 C 307 738 301 654 301 567 L 301 506 C 301 378 308 298 324 265 C 339 231 367 215 408 215 C 428 215 445 219 458 227 C 470 235 481 250 490 270 C 498 290 504 331 508 391 C 512 451 514 511 514 571 Z" unicode="q" />
<glyph horiz-adv-x="618" d="M 623 1130 L 623 872 C 579 886 531 893 479 893 C 423 893 383 875 361 839 C 339 803 328 746 328 668 L 328 0 L 53 0 L 53 1126 L 324 1126 L 324 993 C 329 1033 351 1068 391 1097 C 431 1126 475 1141 524 1141 C 572 1141 605 1137 623 1130 Z" unicode="r" />
<glyph horiz-adv-x="745" d="M 721 305 C 721 203 690 124 630 68 C 569 12 485 -16 377 -16 C 311 -16 256 -10 211 2 C 165 14 128 32 100 57 C 72 82 51 114 39 154 C 26 194 20 260 20 354 L 274 354 L 279 270 C 281 246 290 229 308 219 C 325 208 346 203 371 203 C 396 203 417 210 435 226 C 452 241 461 265 461 297 C 461 331 453 359 437 381 C 421 402 394 420 356 436 L 225 496 C 155 528 105 571 75 624 C 44 677 29 748 29 838 C 29 933 58 1008 116 1062 C 174 1116 254 1143 356 1143 C 455 1143 531 1124 585 1088 C 639 1052 672 1002 686 940 C 689 919 692 888 694 847 C 696 805 698 778 698 766 L 451 766 C 451 812 449 840 446 850 C 440 895 414 918 367 918 C 311 918 283 889 283 831 C 283 803 289 779 302 761 C 314 743 337 726 371 711 L 524 637 C 596 601 647 558 677 508 C 706 458 721 390 721 305 Z" unicode="s" />
<glyph horiz-adv-x="559" d="M 539 887 L 379 887 L 379 295 C 379 269 384 249 396 237 C 408 225 428 219 457 219 C 483 219 506 221 526 225 L 526 6 C 488 -3 435 -8 367 -8 C 189 -8 100 76 100 246 L 100 887 L 4 887 L 4 1126 L 104 1126 L 115 1337 L 381 1343 L 381 1126 L 539 1126 L 539 887 Z" unicode="t" />
<glyph horiz-adv-x="813" d="M 766 0 L 506 0 L 498 70 C 478 44 451 25 416 12 C 381 -1 343 -8 301 -8 C 131 -8 47 89 47 283 L 47 1005 L 45 1126 L 319 1126 C 321 1126 322 1041 322 871 L 322 309 C 322 275 328 251 341 237 C 354 223 374 217 401 217 C 430 217 452 226 467 246 C 481 266 489 298 489 342 L 489 1126 L 762 1126 L 762 135 L 766 0 Z" unicode="u" />
<glyph horiz-adv-x="827" d="M 825 1126 L 590 0 L 244 0 L 2 1126 L 276 1126 L 418 319 L 559 1126 L 825 1126 Z" unicode="v" />
<glyph horiz-adv-x="1253" d="M 1251 1126 L 1055 0 L 731 0 L 639 532 L 631 649 L 627 532 L 532 0 L 205 0 L 2 1126 L 281 1126 L 385 299 L 489 1126 L 770 1126 L 889 299 L 979 1126 L 1251 1126 Z" unicode="w" />
<glyph horiz-adv-x="784" d="M 393 856 L 506 1126 L 766 1126 L 520 575 L 776 0 L 510 0 L 387 293 L 262 0 L 2 0 L 262 573 L 14 1126 L 281 1126 L 393 856 Z" unicode="x" />
<glyph horiz-adv-x="829" d="M 827 1126 L 459 -334 L 178 -334 L 270 31 L 2 1126 L 281 1126 L 418 401 C 428 454 454 586 494 797 C 534 1008 555 1118 555 1126 L 827 1126 Z" unicode="y" />
<glyph horiz-adv-x="705" d="M 686 0 L 23 0 L 23 227 L 393 887 L 33 887 L 33 1126 L 680 1126 L 680 895 L 309 238 L 686 238 L 686 0 Z" unicode="z" />
<glyph horiz-adv-x="616" d="M 584 -334 L 434 -334 C 344 -334 276 -310 228 -264 C 180 -217 156 -153 156 -72 C 156 -8 163 76 178 182 C 192 288 199 367 199 420 C 199 488 185 538 158 571 C 131 604 89 621 33 621 L 33 858 C 91 859 133 874 160 903 C 187 932 201 978 201 1040 C 201 1080 193 1135 179 1205 C 163 1274 156 1334 156 1386 C 156 1459 180 1519 229 1565 C 278 1611 343 1634 424 1634 L 584 1634 L 584 1411 L 568 1411 C 504 1411 461 1401 439 1383 C 416 1364 405 1332 405 1287 C 405 1261 408 1233 414 1204 C 434 1096 444 1019 444 973 C 444 905 428 851 397 811 C 366 771 322 747 264 739 C 321 733 365 708 397 663 C 428 617 444 556 444 479 C 444 435 438 361 427 259 C 413 135 406 54 406 16 C 406 -30 417 -63 440 -81 C 462 -99 505 -109 569 -109 L 584 -109 L 584 -334 Z" unicode="{" />
<glyph horiz-adv-x="512" d="M 365 -410 L 150 -410 L 150 1638 L 365 1638 L 365 -410 Z" unicode="|" />
<glyph horiz-adv-x="616" d="M 29 -334 L 29 -109 L 44 -109 C 106 -109 149 -99 173 -81 C 197 -63 209 -28 209 24 C 209 54 201 132 186 259 C 174 357 168 430 168 479 C 168 555 184 616 216 662 C 248 708 292 733 348 739 C 290 747 246 771 215 811 C 183 851 168 905 168 973 C 168 1007 174 1059 187 1130 C 200 1206 207 1256 207 1281 C 207 1329 195 1363 173 1382 C 151 1401 108 1411 45 1411 L 29 1411 L 29 1634 L 188 1634 C 269 1634 334 1611 383 1565 C 432 1519 457 1460 457 1386 C 457 1331 450 1271 436 1205 C 421 1138 414 1083 414 1040 C 414 976 427 930 453 902 C 479 874 522 859 580 858 L 580 621 C 524 621 483 605 456 573 C 429 541 416 490 416 420 C 416 376 423 296 437 182 C 450 67 457 -17 457 -72 C 457 -155 432 -219 383 -265 C 334 -311 266 -334 178 -334 L 29 -334 Z" unicode="}" />
<glyph horiz-adv-x="930" d="M 293 760 C 269 760 249 749 231 729 C 213 708 199 673 188 625 L 4 698 C 26 792 61 863 111 912 C 160 960 221 985 295 985 C 339 985 378 975 413 957 C 447 938 491 902 544 849 C 580 811 615 793 651 793 C 677 793 699 804 718 826 C 736 848 750 879 758 920 L 920 825 C 900 741 867 678 821 634 C 774 590 717 569 649 569 C 600 569 557 579 520 600 C 482 621 442 655 400 701 C 362 740 326 760 293 760 Z" unicode="~" />
<glyph horiz-adv-x="559" d="M 416 745 L 530 745 L 530 547 L 416 547 L 416 -14 L 281 -225 L 145 -14 L 145 547 L 29 547 L 29 745 L 147 745 L 147 948 L 29 948 L 29 1149 L 145 1149 L 145 1624 L 418 1624 L 418 1355 L 416 1149 L 530 1149 L 530 948 L 416 948 L 416 745 Z" unicode="‡" />
<glyph horiz-adv-x="1061" d="M 535 440 C 375 440 252 480 167 560 C 82 640 39 757 37 911 L 35 1040 L 37 1204 C 39 1346 83 1455 168 1531 C 253 1607 374 1645 530 1645 C 686 1645 807 1607 893 1531 C 978 1455 1022 1346 1024 1204 L 1025 1139 L 1025 989 C 1025 841 1006 731 970 659 C 933 587 878 532 806 495 C 734 458 643 440 535 440 Z M 916 1082 L 916 1152 C 916 1252 901 1328 872 1379 C 842 1429 799 1467 743 1492 C 687 1517 616 1530 530 1530 C 404 1530 309 1502 245 1448 C 181 1393 147 1313 145 1208 L 144 1138 L 144 1062 L 145 944 C 147 679 276 547 530 547 C 662 547 758 577 819 639 C 880 701 912 802 915 944 L 916 1082 Z M 467 887 L 467 702 L 279 702 L 279 1354 L 571 1354 C 626 1354 673 1345 711 1328 C 749 1310 777 1284 795 1248 C 813 1212 823 1172 823 1130 C 823 1082 816 1039 804 1001 C 791 963 767 935 733 916 C 698 896 662 887 625 887 L 467 887 Z M 633 1116 C 633 1135 629 1155 621 1176 C 608 1194 585 1204 551 1204 L 467 1204 L 467 1030 L 563 1030 C 584 1030 599 1033 609 1040 C 618 1047 624 1055 628 1063 C 631 1071 633 1089 633 1116 Z" unicode="℗" />
<glyph horiz-adv-x="440" d="M 375 627 L 63 627 L 63 995 L 375 995 L 375 627 Z" unicode="∙" />
<glyph horiz-adv-x="1536" d="M 468 1216 C 566 1216 646 1188 706 1134 C 766 1079 813 981 848 840 C 853 720 877 642 920 608 C 962 573 1013 556 1072 556 C 1128 556 1176 579 1218 626 C 1259 672 1280 736 1280 816 C 1280 882 1264 940 1234 988 C 1203 1036 1152 1060 1080 1060 C 1008 1060 954 1029 920 968 C 885 906 857 834 836 752 C 809 648 760 562 688 496 C 616 429 533 396 440 396 C 336 396 252 433 190 508 C 127 582 96 682 96 808 C 96 925 133 1022 208 1100 C 282 1177 369 1216 468 1216 Z M 1072 396 C 973 396 896 424 840 482 C 784 539 741 633 712 764 C 685 870 652 944 614 986 C 575 1027 528 1048 472 1048 C 408 1048 356 1026 316 982 C 276 938 256 874 256 792 C 256 709 271 648 302 610 C 332 571 381 552 448 552 C 509 552 562 576 608 624 C 653 672 689 752 716 864 C 748 984 796 1072 860 1130 C 924 1187 1004 1216 1100 1216 C 1198 1216 1280 1181 1346 1112 C 1411 1042 1444 945 1444 820 C 1444 700 1409 599 1340 518 C 1270 436 1181 396 1072 396 Z" unicode="∞" />
<glyph horiz-adv-x="1020" d="M 1014 1638 L 639 -35 L 225 -35 L 20 659 L 291 659 L 414 227 L 709 1638 L 1014 1638 Z" unicode="√" />
<glyph horiz-adv-x="156" d="" unicode=" " />
<glyph horiz-adv-x="432" d="M 78 1636 L 356 1636 L 356 1280 L 78 1280 L 78 1636 Z M 66 0 L 98 1190 L 340 1190 L 369 0 L 66 0 Z" unicode="¡" />
<glyph horiz-adv-x="815" d="M 336 1374 L 336 1505 L 496 1505 L 496 1376 C 646 1358 736 1294 764 1182 C 783 1104 793 1014 793 911 L 532 911 C 532 1003 529 1060 523 1084 C 517 1107 507 1124 493 1136 C 479 1147 460 1153 438 1153 C 383 1153 352 1125 346 1069 C 338 997 334 910 334 809 L 334 748 C 334 602 340 513 354 479 C 368 445 395 428 436 428 C 474 428 499 445 512 481 C 525 516 532 588 532 696 L 793 696 C 793 612 787 544 775 491 C 763 438 749 399 735 373 C 721 347 702 324 678 304 C 654 284 628 267 598 255 C 568 243 534 234 496 229 L 496 86 L 336 86 L 336 231 C 225 248 147 297 103 377 C 59 457 37 601 37 809 C 37 905 43 989 57 1062 C 71 1135 89 1191 111 1229 C 133 1267 163 1299 200 1323 C 236 1347 282 1364 336 1374 Z" unicode="¢" />
<glyph horiz-adv-x="846" d="M 164 827 C 134 889 112 943 97 987 C 81 1031 70 1074 64 1114 C 58 1154 55 1205 55 1269 L 57 1358 C 59 1413 75 1463 107 1508 C 138 1552 182 1587 239 1613 C 295 1638 362 1651 440 1651 C 554 1651 641 1625 703 1574 C 764 1522 797 1445 801 1341 L 801 1004 L 532 1004 L 532 1292 C 530 1338 521 1369 506 1387 C 490 1404 467 1413 436 1413 C 380 1413 348 1379 342 1313 L 340 1241 L 340 1194 C 340 1146 347 1089 361 1022 C 375 954 396 889 426 827 L 760 827 L 760 598 L 483 598 C 491 564 495 531 495 500 C 495 436 479 381 449 335 C 419 288 379 258 330 246 L 799 246 L 799 0 L 37 0 L 37 256 C 107 278 158 310 192 353 C 225 396 243 445 245 501 C 245 542 240 574 231 598 L 55 598 L 55 827 L 164 827 Z" unicode="£" />
<glyph horiz-adv-x="1152" d="M 1056 392 L 940 284 L 740 500 C 692 468 636 452 572 452 C 510 452 456 468 408 500 L 208 284 L 92 392 L 300 608 C 281 634 268 660 262 686 C 255 711 252 742 252 780 C 252 848 268 906 300 952 L 92 1168 L 208 1276 L 408 1060 C 456 1092 510 1108 572 1108 C 636 1108 692 1092 740 1060 L 944 1276 L 1060 1156 L 852 952 C 870 925 883 898 890 872 C 896 845 900 814 900 780 C 900 716 882 658 848 608 L 1056 392 Z M 748 780 C 748 833 731 876 698 910 C 664 943 622 960 572 960 C 521 960 480 943 448 910 C 416 876 400 833 400 780 C 400 726 416 684 450 652 C 483 620 524 604 572 604 C 625 604 668 620 700 652 C 732 684 748 726 748 780 Z" unicode="¤" />
<glyph horiz-adv-x="995" d="M 346 408 L 47 408 L 47 580 L 338 580 L 338 641 L 0 1634 L 307 1634 C 425 1248 485 1029 489 979 C 490 1004 512 1086 555 1226 C 597 1366 641 1502 686 1634 L 997 1634 L 641 649 L 641 580 L 944 580 L 944 408 L 633 408 L 633 346 L 944 346 L 944 174 L 641 174 L 641 0 L 338 0 L 338 174 L 47 174 L 47 346 L 346 346 L 346 408 Z" unicode="¥" />
<glyph horiz-adv-x="512" d="M 365 731 L 147 731 L 147 1638 L 365 1638 L 365 731 Z M 365 -410 L 147 -410 L 147 455 L 365 455 L 365 -410 Z" unicode="¦" />
<glyph horiz-adv-x="709" d="M 172 1128 C 138 1155 114 1186 101 1221 C 88 1255 82 1304 82 1366 L 84 1419 C 88 1486 115 1539 163 1578 C 211 1616 276 1636 358 1636 C 424 1636 477 1626 517 1607 C 556 1588 586 1559 607 1520 C 628 1480 639 1424 639 1350 L 639 1292 L 453 1292 L 453 1340 L 451 1384 C 448 1443 423 1473 375 1473 C 352 1473 334 1468 320 1458 C 306 1448 298 1429 295 1403 L 295 1329 C 297 1293 305 1266 320 1248 C 334 1230 357 1212 389 1196 L 498 1139 C 556 1109 597 1072 623 1028 C 649 984 662 933 662 876 C 662 804 649 746 624 703 C 599 659 560 628 506 610 C 564 574 608 535 636 491 C 664 447 679 396 679 336 L 679 267 C 679 170 652 98 599 52 C 546 5 471 -18 373 -18 C 261 -18 179 8 126 60 C 73 112 47 192 47 301 L 47 360 L 276 360 L 276 262 C 278 196 310 164 371 164 C 431 164 461 195 461 258 L 461 342 C 459 374 450 401 434 423 C 418 444 392 465 354 487 L 176 596 C 130 622 96 657 73 703 C 49 748 38 807 38 880 C 38 925 43 963 53 993 C 63 1023 79 1049 99 1073 C 119 1096 144 1114 172 1128 Z M 391 717 C 407 718 421 727 433 745 C 445 763 453 784 459 809 L 461 834 C 461 872 455 900 443 919 C 431 937 414 954 392 970 C 369 985 344 998 317 1010 C 303 1008 289 999 277 983 C 265 967 257 946 254 922 C 250 911 249 898 249 884 C 249 848 258 818 277 795 C 295 771 333 745 391 717 Z" unicode="§" />
<glyph horiz-adv-x="768" d="M 659 1200 L 440 1200 L 440 1458 L 659 1458 L 659 1200 Z M 328 1200 L 111 1200 L 111 1458 L 328 1458 L 328 1200 Z" unicode="¨" />
<glyph horiz-adv-x="1061" d="M 535 440 C 375 440 252 480 167 560 C 82 640 39 757 37 911 L 35 1040 L 37 1204 C 39 1346 83 1455 168 1531 C 253 1607 374 1645 530 1645 C 686 1645 807 1607 893 1531 C 978 1455 1022 1346 1024 1204 L 1025 1139 L 1025 989 C 1025 841 1006 731 970 659 C 933 587 878 532 806 495 C 734 458 643 440 535 440 Z M 916 1082 L 916 1152 C 916 1252 901 1328 872 1379 C 842 1429 799 1467 743 1492 C 687 1517 616 1530 530 1530 C 404 1530 309 1502 245 1448 C 181 1393 147 1313 145 1208 L 144 1138 L 144 1062 L 145 944 C 146 679 274 547 530 547 C 661 547 757 577 819 638 C 880 699 912 801 915 944 L 916 1082 Z M 780 973 L 776 848 C 773 798 749 757 705 727 C 660 697 602 682 532 682 C 486 682 446 687 413 699 C 380 710 353 727 333 750 C 312 772 299 800 294 832 C 289 864 287 911 287 971 L 287 1020 C 287 1137 291 1209 300 1235 C 308 1261 324 1285 347 1306 C 370 1326 399 1342 434 1354 C 469 1366 507 1372 547 1372 C 614 1372 668 1355 710 1322 C 751 1289 773 1246 776 1194 L 778 1148 L 778 1090 L 621 1090 L 622 1147 C 622 1203 595 1231 543 1231 C 485 1231 454 1204 451 1151 L 449 1094 L 449 1024 L 451 897 C 453 867 460 845 474 833 C 487 821 509 815 541 815 C 571 815 592 822 605 836 C 618 850 625 885 625 939 L 625 973 L 780 973 Z" unicode="©" />
<glyph horiz-adv-x="784" d="M 739 543 L 475 543 L 469 609 L 469 629 C 427 564 356 532 256 532 C 186 532 130 549 90 585 C 50 621 28 672 25 739 L 22 810 C 22 884 27 939 38 975 C 49 1011 66 1043 90 1072 C 114 1101 143 1125 177 1144 C 211 1163 252 1178 299 1188 C 345 1198 401 1206 465 1212 L 467 1348 C 465 1373 459 1392 448 1404 C 436 1416 417 1423 389 1423 C 371 1423 356 1417 344 1407 C 332 1396 324 1375 320 1343 C 315 1311 313 1280 313 1251 L 59 1251 L 59 1300 C 59 1356 67 1406 81 1452 C 95 1497 122 1535 160 1566 C 198 1596 245 1617 301 1629 C 357 1640 389 1643 399 1638 C 505 1638 586 1617 640 1575 C 694 1533 723 1468 727 1380 L 728 1299 L 728 1115 L 725 886 L 725 743 C 725 621 729 555 739 543 Z M 752 270 L 29 270 L 29 489 L 752 489 L 752 270 Z M 465 1036 L 446 1038 L 425 1037 L 410 1038 C 379 1038 352 1026 329 1002 C 305 978 294 934 294 868 C 294 826 301 795 315 777 C 329 758 349 749 376 749 C 406 749 428 756 442 771 C 456 785 464 809 464 842 L 464 872 L 465 920 L 465 1036 Z" unicode="ª" />
<glyph horiz-adv-x="846" d="M 811 229 L 430 608 L 430 809 L 811 1186 L 811 893 L 643 709 L 811 526 L 811 229 Z M 416 229 L 33 608 L 33 809 L 416 1186 L 416 893 L 248 709 L 416 526 L 416 229 Z" unicode="«" />
<glyph horiz-adv-x="1536" d="M 1116 352 L 1116 728 L 212 728 L 212 920 L 1296 920 L 1296 352 L 1116 352 Z" unicode="¬" />
<glyph horiz-adv-x="614" d="M 596 657 L 18 657 L 18 946 L 596 946 L 596 657 Z" unicode="­" />
<glyph horiz-adv-x="1061" d="M 535 440 C 375 440 252 480 167 560 C 82 640 39 757 37 911 L 35 1040 L 37 1204 C 39 1346 83 1455 168 1531 C 253 1607 374 1645 530 1645 C 686 1645 807 1607 893 1531 C 978 1455 1022 1346 1024 1204 L 1025 1139 L 1025 989 C 1025 841 1006 731 970 659 C 933 587 878 532 806 495 C 734 458 643 440 535 440 Z M 916 1082 L 916 1152 C 916 1252 901 1328 872 1379 C 842 1429 799 1467 743 1492 C 687 1517 616 1530 530 1530 C 404 1530 309 1502 245 1448 C 181 1393 147 1313 145 1208 L 144 1138 L 144 1062 L 145 944 C 147 679 276 547 530 547 C 662 547 758 577 819 639 C 880 701 912 802 915 944 L 916 1082 Z M 809 702 L 625 702 L 526 934 L 459 934 L 459 702 L 270 702 L 270 1354 L 561 1354 C 613 1354 659 1344 698 1326 C 736 1307 764 1282 782 1251 C 800 1219 809 1187 809 1155 C 809 1109 800 1070 783 1036 C 765 1002 734 979 690 965 L 809 702 Z M 621 1130 C 621 1158 614 1177 602 1188 C 592 1199 576 1207 554 1211 C 532 1215 500 1217 459 1217 L 459 1044 C 498 1044 529 1046 552 1050 C 575 1054 592 1061 604 1073 C 615 1088 621 1107 621 1130 Z" unicode="®" />
<glyph horiz-adv-x="768" d="M 662 1227 L 104 1227 L 104 1407 L 662 1407 L 662 1227 Z" unicode="¯" />
<glyph horiz-adv-x="535" d="M 266 1559 C 332 1559 388 1535 436 1487 C 484 1439 508 1380 508 1311 C 508 1241 484 1183 436 1135 C 388 1087 332 1063 266 1063 C 200 1063 144 1087 97 1135 C 50 1183 27 1242 27 1311 C 27 1379 50 1438 97 1486 C 144 1534 200 1559 266 1559 Z M 266 1403 C 240 1403 218 1394 200 1376 C 182 1358 174 1337 174 1311 C 174 1283 183 1261 201 1244 C 219 1227 240 1219 266 1219 C 291 1219 313 1227 331 1244 C 349 1261 358 1283 358 1311 C 358 1337 349 1358 331 1376 C 313 1394 292 1403 266 1403 Z" unicode="°" />
<glyph horiz-adv-x="1536" d="M 672 352 L 672 764 L 200 764 L 200 936 L 672 936 L 672 1352 L 864 1352 L 864 936 L 1340 936 L 1340 764 L 864 764 L 864 352 L 672 352 Z M 204 24 L 204 216 L 1336 216 L 1336 24 L 204 24 Z" unicode="±" />
<glyph horiz-adv-x="664" d="M 592 795 L 68 795 L 68 930 C 87 968 126 1016 185 1074 C 255 1143 300 1191 322 1218 C 343 1244 360 1271 374 1298 C 388 1324 395 1352 395 1380 L 395 1430 C 395 1458 389 1477 377 1487 C 365 1497 347 1503 324 1503 C 300 1503 283 1496 274 1482 C 264 1468 260 1437 260 1391 L 260 1337 L 70 1337 L 70 1395 L 72 1450 C 76 1507 102 1553 150 1587 C 197 1621 260 1638 340 1638 C 501 1638 586 1575 596 1450 L 594 1364 C 592 1323 580 1285 560 1250 C 540 1214 516 1180 488 1147 C 460 1113 431 1080 401 1048 C 371 1015 345 981 324 946 L 592 946 L 592 795 Z" unicode="²" />
<glyph horiz-adv-x="678" d="M 410 1223 C 476 1221 527 1206 563 1180 C 599 1153 617 1110 617 1050 L 614 975 C 603 846 511 782 338 782 C 254 782 188 796 142 826 C 95 856 71 896 70 948 L 68 1021 L 68 1055 L 260 1055 L 260 956 C 260 936 266 923 280 917 C 294 910 313 907 338 907 C 366 907 386 912 396 924 C 406 935 412 952 412 975 L 412 1059 C 412 1086 404 1105 389 1115 C 374 1125 344 1132 299 1135 L 281 1135 L 199 1137 L 199 1280 L 307 1282 C 337 1285 358 1290 371 1297 C 383 1304 392 1314 396 1328 C 400 1342 402 1374 402 1426 L 401 1448 C 401 1467 395 1481 385 1489 C 375 1497 359 1501 338 1501 C 294 1501 272 1483 272 1448 L 270 1368 L 86 1368 L 92 1479 C 96 1528 120 1567 165 1596 C 209 1625 269 1640 344 1640 C 422 1640 483 1625 527 1595 C 570 1565 593 1523 596 1468 L 596 1401 C 594 1344 577 1301 545 1273 C 513 1245 468 1228 410 1223 Z" unicode="³" />
<glyph horiz-adv-x="768" d="M 221 1200 L 360 1499 L 651 1499 L 475 1200 L 221 1200 Z" unicode="´" />
<glyph horiz-adv-x="1408" d="M 252 -424 C 214 -424 186 -413 168 -392 C 149 -370 140 -333 140 -280 C 140 -176 145 -49 156 100 C 166 233 172 309 172 328 L 176 356 L 176 1176 L 368 1176 L 368 320 C 368 258 395 210 450 176 C 504 141 564 124 628 124 C 716 124 792 146 858 190 C 923 234 973 297 1008 380 L 1008 1176 L 1200 1176 L 1200 308 L 1220 0 L 1056 0 L 1020 176 C 974 104 913 50 836 14 C 758 -22 670 -40 572 -40 C 537 -40 494 -31 444 -14 C 393 3 353 28 324 60 C 324 1 333 -56 352 -112 C 370 -168 380 -218 380 -264 C 380 -370 337 -424 252 -424 Z" unicode="µ" />
<glyph horiz-adv-x="817" d="M 770 1634 L 770 -211 L 670 -211 L 670 1427 L 618 1427 L 618 -211 L 514 -211 L 514 518 C 493 489 464 467 427 452 C 390 437 351 430 309 430 C 239 430 181 447 135 482 C 89 517 61 566 51 629 C 36 714 29 850 29 1036 C 29 1183 32 1293 40 1365 C 48 1437 63 1492 87 1528 C 110 1564 141 1592 179 1612 C 217 1632 259 1642 303 1642 C 355 1642 400 1633 438 1615 C 476 1597 502 1575 516 1548 L 532 1634 L 770 1634 Z M 514 1053 L 515 1231 L 515 1293 L 514 1323 C 514 1356 506 1379 490 1393 C 474 1406 457 1413 438 1413 C 405 1413 383 1402 372 1381 C 360 1359 352 1314 347 1244 C 342 1174 340 1104 340 1034 C 340 1004 341 956 343 890 C 345 824 348 775 352 743 C 355 711 364 689 378 676 C 392 663 410 657 432 657 C 482 657 509 686 512 745 L 514 864 L 514 1053 Z" unicode="¶" />
<glyph horiz-adv-x="440" d="M 375 627 L 63 627 L 63 995 L 375 995 L 375 627 Z" unicode="·" />
<glyph horiz-adv-x="768" d="M 434 -182 C 434 -130 397 -104 324 -104 L 324 0 L 473 0 L 473 -49 C 521 -53 560 -69 591 -98 C 621 -126 637 -165 637 -213 C 637 -273 613 -319 567 -352 C 520 -385 453 -402 366 -403 C 325 -403 280 -399 231 -391 L 231 -256 C 263 -261 290 -264 314 -264 C 352 -264 381 -257 402 -243 C 423 -229 434 -208 434 -182 Z" unicode="¸" />
<glyph horiz-adv-x="588" d="M 424 795 L 233 795 L 233 1405 L 68 1395 L 68 1530 C 120 1531 166 1541 204 1561 C 242 1581 267 1605 281 1634 L 424 1634 L 424 795 Z" unicode="¹" />
<glyph horiz-adv-x="786" d="M 748 1094 C 748 977 736 870 713 772 C 695 696 657 638 601 597 C 544 555 472 535 385 535 C 296 535 223 555 167 597 C 110 638 73 701 55 786 C 37 870 29 973 29 1094 C 29 1200 39 1297 59 1383 C 79 1469 117 1534 173 1576 C 229 1618 301 1640 389 1640 C 479 1640 553 1619 610 1578 C 666 1536 701 1479 715 1405 C 737 1326 748 1222 748 1094 Z M 760 258 L 29 258 L 29 489 L 760 489 L 760 258 Z M 481 1090 C 481 1138 479 1193 476 1253 C 473 1313 468 1351 462 1368 C 456 1384 446 1396 434 1404 C 422 1411 406 1415 387 1415 C 342 1415 317 1392 311 1346 C 300 1305 295 1220 295 1090 C 295 968 300 879 311 823 C 319 777 345 754 389 754 C 432 754 458 777 467 825 C 476 887 481 975 481 1090 Z" unicode="º" />
<glyph horiz-adv-x="846" d="M 434 242 L 434 539 L 598 721 L 434 903 L 434 1198 L 817 821 L 817 618 L 434 242 Z M 39 242 L 39 539 L 203 721 L 39 903 L 39 1198 L 422 821 L 422 618 L 39 242 Z" unicode="»" />
<glyph horiz-adv-x="1155" d="M 369 795 L 178 795 L 178 1405 L 10 1395 L 10 1530 C 64 1531 111 1542 149 1563 C 187 1583 212 1607 223 1634 L 369 1634 L 369 795 Z M 801 1634 L 491 543 L 342 0 L 240 0 C 456 757 608 1302 698 1634 L 801 1634 Z M 1120 190 L 1032 190 L 1032 0 L 844 0 L 844 193 L 532 193 L 532 340 L 825 836 L 1032 836 L 1032 334 L 1120 334 L 1120 190 Z M 844 334 L 844 573 L 711 334 L 844 334 Z" unicode="¼" />
<glyph horiz-adv-x="1151" d="M 367 795 L 176 795 L 176 1405 L 8 1395 L 8 1530 C 60 1531 106 1541 144 1561 C 182 1580 209 1604 223 1634 L 367 1634 L 367 795 Z M 768 1634 C 596 1043 443 498 309 0 L 207 0 L 453 864 L 666 1634 L 768 1634 Z M 1100 0 L 575 0 L 575 135 C 587 160 606 187 632 216 C 658 244 703 290 767 353 C 857 443 903 520 903 586 L 903 635 C 903 663 897 682 885 693 C 873 703 855 709 831 709 C 807 709 791 700 782 684 C 772 667 768 638 768 597 L 768 543 L 580 543 L 580 600 L 582 655 C 586 714 612 760 660 794 C 707 827 770 844 850 844 C 1009 844 1094 781 1104 655 L 1102 569 C 1099 529 1087 491 1067 455 C 1047 419 1023 385 995 352 C 967 318 939 285 909 252 C 879 219 853 185 831 150 L 1100 150 L 1100 0 Z" unicode="½" />
<glyph horiz-adv-x="1288" d="M 367 1223 C 433 1221 484 1206 520 1180 C 556 1153 574 1110 574 1050 L 571 975 C 560 846 468 782 295 782 C 215 782 150 796 102 824 C 54 852 29 894 27 948 L 25 1021 L 25 1055 L 217 1055 L 217 956 C 217 936 223 923 237 917 C 251 910 269 907 293 907 C 323 907 343 912 353 924 C 363 935 369 952 369 975 L 369 1059 C 369 1086 361 1105 346 1115 C 331 1125 301 1132 256 1135 L 238 1135 L 156 1137 L 156 1280 L 264 1282 C 294 1285 315 1290 328 1297 C 340 1304 349 1314 353 1328 C 357 1342 359 1374 359 1426 L 358 1448 C 358 1483 337 1501 295 1501 C 253 1501 231 1483 229 1448 L 227 1368 L 43 1368 L 47 1479 C 53 1528 78 1567 123 1596 C 167 1625 227 1640 301 1640 C 378 1640 438 1625 482 1595 C 525 1565 548 1523 551 1468 L 553 1401 C 551 1344 534 1301 502 1273 C 470 1245 425 1228 367 1223 Z M 938 1634 L 628 543 L 479 0 L 377 0 L 623 864 L 836 1634 L 938 1634 Z M 1257 190 L 1167 190 L 1167 0 L 979 0 L 979 193 L 670 193 L 670 340 L 963 836 L 1167 836 L 1167 334 L 1257 334 L 1257 190 Z M 979 334 L 979 575 L 848 334 L 979 334 Z" unicode="¾" />
<glyph horiz-adv-x="801" d="M 303 1634 L 586 1634 L 586 1278 L 303 1278 L 303 1634 Z M 331 1159 L 330 1190 L 567 1190 L 569 1126 C 569 970 532 836 460 723 C 403 634 368 576 356 549 C 343 522 334 496 330 471 C 326 446 324 413 324 371 L 326 315 C 328 249 359 217 418 217 C 476 217 507 247 510 307 L 512 382 L 512 457 L 776 457 C 776 378 774 311 770 255 C 766 199 749 150 717 110 C 685 69 642 38 588 17 C 533 -3 470 -14 399 -14 C 155 -14 33 90 33 300 L 33 350 L 35 446 C 37 494 49 543 73 591 C 96 639 136 700 193 776 C 285 898 331 1026 331 1159 Z" unicode="¿" />
<glyph horiz-adv-x="936" d="M 356 395 L 299 0 L 0 0 L 272 1634 L 692 1634 L 936 0 L 633 0 L 580 395 L 356 395 Z M 553 637 L 522 875 L 492 1120 C 484 1168 479 1250 477 1368 C 475 1267 469 1184 459 1120 L 385 637 L 553 637 Z M 629 1696 L 371 1696 L 195 1995 L 487 1995 L 629 1696 Z" unicode="À" />
<glyph horiz-adv-x="936" d="M 356 395 L 299 0 L 0 0 L 272 1634 L 692 1634 L 936 0 L 633 0 L 580 395 L 356 395 Z M 553 637 L 522 875 L 492 1120 C 484 1168 479 1250 477 1368 C 475 1267 469 1184 459 1120 L 385 637 L 553 637 Z M 328 1696 L 467 1995 L 758 1995 L 582 1696 L 328 1696 Z" unicode="Á" />
<glyph horiz-adv-x="936" d="M 356 395 L 299 0 L 0 0 L 272 1634 L 692 1634 L 936 0 L 633 0 L 580 395 L 356 395 Z M 553 637 L 522 875 L 492 1120 C 484 1168 479 1250 477 1368 C 475 1267 469 1184 459 1120 L 385 637 L 553 637 Z M 766 1698 L 541 1698 L 467 1833 L 391 1698 L 172 1698 L 328 1997 L 610 1997 L 766 1698 Z" unicode="Â" />
<glyph horiz-adv-x="936" d="M 356 395 L 299 0 L 0 0 L 272 1634 L 692 1634 L 936 0 L 633 0 L 580 395 L 356 395 Z M 553 637 L 522 875 L 492 1120 C 484 1168 479 1250 477 1368 C 475 1267 469 1184 459 1120 L 385 637 L 553 637 Z M 387 1794 L 381 1794 C 352 1794 336 1764 332 1706 L 154 1706 C 156 1791 174 1859 208 1910 C 241 1961 286 1987 342 1987 C 370 1987 396 1982 418 1973 C 440 1964 461 1948 483 1925 C 497 1908 509 1897 519 1892 C 529 1886 539 1884 550 1884 C 569 1884 583 1891 592 1905 C 600 1919 606 1944 608 1978 L 782 1978 C 778 1884 760 1814 726 1766 C 692 1718 648 1694 594 1694 C 570 1694 549 1696 531 1701 C 512 1706 492 1719 471 1741 C 452 1758 437 1771 426 1780 C 414 1789 401 1794 387 1794 Z" unicode="Ã" />
<glyph horiz-adv-x="936" d="M 356 395 L 299 0 L 0 0 L 272 1634 L 692 1634 L 936 0 L 633 0 L 580 395 L 356 395 Z M 553 637 L 522 875 L 492 1120 C 484 1168 479 1250 477 1368 C 475 1267 469 1184 459 1120 L 385 637 L 553 637 Z M 756 1698 L 537 1698 L 537 1956 L 756 1956 L 756 1698 Z M 424 1698 L 207 1698 L 207 1956 L 424 1956 L 424 1698 Z" unicode="Ä" />
<glyph horiz-adv-x="936" d="M 305 1634 C 263 1680 242 1737 242 1804 C 242 1872 265 1930 311 1977 C 357 2024 413 2048 481 2048 C 549 2048 606 2024 653 1977 C 699 1929 723 1872 723 1804 C 723 1736 701 1679 657 1634 L 692 1634 L 936 0 L 633 0 L 580 395 L 356 395 L 299 0 L 0 0 L 272 1634 L 305 1634 Z M 481 1890 C 459 1890 441 1881 427 1865 C 413 1848 406 1828 406 1804 C 406 1780 413 1760 427 1743 C 441 1726 459 1718 481 1718 C 503 1718 522 1726 538 1743 C 554 1759 563 1780 563 1804 C 563 1826 555 1846 539 1864 C 523 1881 504 1890 481 1890 Z M 553 637 L 522 875 L 492 1120 C 484 1168 479 1250 477 1368 C 475 1267 469 1184 459 1120 L 385 637 L 553 637 Z" unicode="Å" />
<glyph horiz-adv-x="1214" d="M 1198 1634 L 1198 1354 L 825 1354 L 825 956 L 1165 956 L 1165 690 L 825 690 L 825 276 L 1200 276 L 1200 0 L 532 0 L 532 373 L 358 373 L 297 0 L -2 0 L 332 1634 L 1198 1634 Z M 530 1358 L 506 1159 L 397 625 L 530 625 L 530 1358 Z" unicode="Æ" />
<glyph horiz-adv-x="940" d="M 414 -14 C 344 -8 284 10 234 40 C 184 70 146 113 119 167 C 92 221 72 307 58 423 C 44 539 37 673 37 825 C 37 983 44 1114 59 1218 C 74 1322 92 1396 112 1442 C 132 1487 160 1525 195 1556 C 230 1586 273 1609 323 1624 C 373 1639 431 1647 498 1647 C 596 1647 676 1627 738 1589 C 799 1551 843 1492 869 1412 C 895 1332 909 1206 909 1034 L 618 1034 C 618 1097 614 1157 608 1213 C 601 1269 593 1304 583 1320 C 573 1335 561 1346 546 1354 C 530 1362 512 1366 492 1366 C 428 1366 388 1336 373 1276 C 357 1213 350 1063 350 827 C 350 708 352 610 356 532 C 360 454 365 396 372 359 C 379 322 394 296 416 280 C 438 264 463 256 492 256 C 560 256 598 292 608 365 C 616 432 621 507 621 590 L 911 590 C 911 466 906 372 896 308 C 886 243 866 187 837 140 C 807 93 770 57 726 33 C 681 8 627 -7 563 -14 L 563 -49 C 611 -53 650 -69 681 -98 C 711 -126 727 -165 727 -213 C 727 -273 703 -319 657 -352 C 610 -385 543 -402 456 -403 C 415 -403 370 -399 322 -391 L 322 -256 C 354 -261 381 -264 404 -264 C 484 -264 524 -236 524 -182 C 524 -130 487 -104 414 -104 L 414 -14 Z" unicode="Ç" />
<glyph horiz-adv-x="813" d="M 788 0 L 63 0 L 63 1634 L 784 1634 L 784 1354 L 362 1354 L 362 956 L 756 956 L 756 690 L 362 690 L 362 276 L 788 276 L 788 0 Z M 588 1696 L 330 1696 L 154 1995 L 446 1995 L 588 1696 Z" unicode="È" />
<glyph horiz-adv-x="813" d="M 788 0 L 63 0 L 63 1634 L 784 1634 L 784 1354 L 362 1354 L 362 956 L 756 956 L 756 690 L 362 690 L 362 276 L 788 276 L 788 0 Z M 291 1698 L 430 1997 L 721 1997 L 545 1698 L 291 1698 Z" unicode="É" />
<glyph horiz-adv-x="813" d="M 788 0 L 63 0 L 63 1634 L 784 1634 L 784 1354 L 362 1354 L 362 956 L 756 956 L 756 690 L 362 690 L 362 276 L 788 276 L 788 0 Z M 725 1698 L 500 1698 L 426 1833 L 350 1698 L 131 1698 L 287 1997 L 569 1997 L 725 1698 Z" unicode="Ê" />
<glyph horiz-adv-x="813" d="M 788 0 L 63 0 L 63 1634 L 784 1634 L 784 1354 L 362 1354 L 362 956 L 756 956 L 756 690 L 362 690 L 362 276 L 788 276 L 788 0 Z M 702 1698 L 483 1698 L 483 1956 L 702 1956 L 702 1698 Z M 371 1698 L 154 1698 L 154 1956 L 371 1956 L 371 1698 Z" unicode="Ë" />
<glyph horiz-adv-x="436" d="M 375 0 L 63 0 L 63 1634 L 375 1634 L 375 0 Z M 369 1696 L 111 1696 L -66 1995 L 227 1995 L 369 1696 Z" unicode="Ì" />
<glyph horiz-adv-x="436" d="M 375 0 L 63 0 L 63 1634 L 375 1634 L 375 0 Z M 82 1698 L 221 1997 L 512 1997 L 336 1698 L 82 1698 Z" unicode="Í" />
<glyph horiz-adv-x="436" d="M 375 0 L 63 0 L 63 1634 L 375 1634 L 375 0 Z M 516 1698 L 291 1698 L 217 1833 L 141 1698 L -78 1698 L 78 1997 L 360 1997 L 516 1698 Z" unicode="Î" />
<glyph horiz-adv-x="436" d="M 375 0 L 63 0 L 63 1634 L 375 1634 L 375 0 Z M 494 1696 L 274 1696 L 274 1954 L 494 1954 L 494 1696 Z M 162 1696 L -55 1696 L -55 1954 L 162 1954 L 162 1696 Z" unicode="Ï" />
<glyph horiz-adv-x="942" d="M 70 670 L 18 670 L 18 956 L 70 956 L 70 1634 L 496 1634 C 583 1634 654 1621 708 1597 C 762 1572 802 1534 829 1483 C 879 1409 905 1198 905 852 C 905 685 902 558 896 472 C 890 386 880 314 868 258 C 855 202 833 154 802 114 C 771 74 733 45 689 27 C 645 9 592 0 532 0 L 70 0 L 70 670 Z M 369 956 L 483 956 L 483 670 L 369 670 L 369 236 L 500 236 C 525 236 547 242 565 255 C 583 267 596 288 602 316 C 608 344 612 416 616 532 C 619 648 621 754 621 852 C 621 920 618 1005 613 1105 C 608 1205 604 1264 600 1282 C 592 1317 578 1342 560 1356 C 541 1370 517 1378 487 1378 L 369 1378 L 369 956 Z" unicode="Ð" />
<glyph horiz-adv-x="946" d="M 883 0 L 600 0 L 342 815 L 342 0 L 63 0 L 63 1634 L 348 1634 L 604 836 L 604 1634 L 883 1634 L 883 0 Z M 420 1794 L 414 1794 C 385 1794 369 1764 365 1706 L 186 1706 C 190 1794 208 1862 242 1912 C 276 1962 320 1987 375 1987 C 403 1987 429 1982 451 1973 C 473 1964 494 1948 516 1925 C 530 1908 542 1897 552 1892 C 562 1886 572 1884 583 1884 C 602 1884 616 1891 625 1905 C 633 1919 639 1944 641 1978 L 815 1978 C 811 1884 793 1814 759 1766 C 725 1718 681 1694 627 1694 C 603 1694 582 1696 564 1701 C 545 1706 525 1719 504 1741 C 485 1758 470 1771 459 1780 C 447 1789 434 1794 420 1794 Z" unicode="Ñ" />
<glyph horiz-adv-x="961" d="M 479 1647 C 567 1647 640 1633 699 1607 C 757 1581 803 1540 837 1486 C 871 1432 894 1359 906 1269 C 918 1179 924 1033 924 831 C 924 727 922 636 918 558 C 914 480 905 397 891 307 C 853 90 716 -18 479 -18 C 366 -18 276 6 210 54 C 143 102 97 176 73 277 C 49 377 37 559 37 821 C 37 977 39 1088 43 1154 C 47 1220 53 1275 63 1319 C 111 1537 250 1647 479 1647 Z M 483 244 C 542 244 580 276 598 340 C 616 404 625 563 625 817 C 625 931 623 1022 619 1089 C 615 1155 609 1212 602 1260 C 594 1308 582 1340 564 1357 C 546 1373 519 1382 483 1382 C 436 1382 404 1365 386 1332 C 368 1299 357 1242 351 1161 C 345 1080 342 964 342 813 C 342 659 345 541 352 458 C 359 374 372 318 391 288 C 410 258 441 244 483 244 Z M 623 1698 L 365 1698 L 188 1997 L 481 1997 L 623 1698 Z" unicode="Ò" />
<glyph horiz-adv-x="961" d="M 479 1647 C 567 1647 640 1633 699 1607 C 757 1581 803 1540 837 1486 C 871 1432 894 1359 906 1269 C 918 1179 924 1033 924 831 C 924 727 922 636 918 558 C 914 480 905 397 891 307 C 853 90 716 -18 479 -18 C 366 -18 276 6 210 54 C 143 102 97 176 73 277 C 49 377 37 559 37 821 C 37 977 39 1088 43 1154 C 47 1220 53 1275 63 1319 C 111 1537 250 1647 479 1647 Z M 483 244 C 542 244 580 276 598 340 C 616 404 625 563 625 817 C 625 931 623 1022 619 1089 C 615 1155 609 1212 602 1260 C 594 1308 582 1340 564 1357 C 546 1373 519 1382 483 1382 C 436 1382 404 1365 386 1332 C 368 1299 357 1242 351 1161 C 345 1080 342 964 342 813 C 342 659 345 541 352 458 C 359 374 372 318 391 288 C 410 258 441 244 483 244 Z M 354 1698 L 494 1997 L 784 1997 L 608 1698 L 354 1698 Z" unicode="Ó" />
<glyph horiz-adv-x="961" d="M 479 1647 C 567 1647 640 1633 699 1607 C 757 1581 803 1540 837 1486 C 871 1432 894 1359 906 1269 C 918 1179 924 1033 924 831 C 924 727 922 636 918 558 C 914 480 905 397 891 307 C 853 90 716 -18 479 -18 C 366 -18 276 6 210 54 C 143 102 97 176 73 277 C 49 377 37 559 37 821 C 37 977 39 1088 43 1154 C 47 1220 53 1275 63 1319 C 111 1537 250 1647 479 1647 Z M 483 244 C 542 244 580 276 598 340 C 616 404 625 563 625 817 C 625 931 623 1022 619 1089 C 615 1155 609 1212 602 1260 C 594 1308 582 1340 564 1357 C 546 1373 519 1382 483 1382 C 436 1382 404 1365 386 1332 C 368 1299 357 1242 351 1161 C 345 1080 342 964 342 813 C 342 659 345 541 352 458 C 359 374 372 318 391 288 C 410 258 441 244 483 244 Z M 778 1698 L 553 1698 L 479 1833 L 403 1698 L 184 1698 L 340 1997 L 623 1997 L 778 1698 Z" unicode="Ô" />
<glyph horiz-adv-x="961" d="M 479 1647 C 567 1647 640 1633 699 1607 C 757 1581 803 1540 837 1486 C 871 1432 894 1359 906 1269 C 918 1179 924 1033 924 831 C 924 727 922 636 918 558 C 914 480 905 397 891 307 C 853 90 716 -18 479 -18 C 366 -18 276 6 210 54 C 143 102 97 176 73 277 C 49 377 37 559 37 821 C 37 977 39 1088 43 1154 C 47 1220 53 1275 63 1319 C 111 1537 250 1647 479 1647 Z M 483 244 C 542 244 580 276 598 340 C 616 404 625 563 625 817 C 625 931 623 1022 619 1089 C 615 1155 609 1212 602 1260 C 594 1308 582 1340 564 1357 C 546 1373 519 1382 483 1382 C 436 1382 404 1365 386 1332 C 368 1299 357 1242 351 1161 C 345 1080 342 964 342 813 C 342 659 345 541 352 458 C 359 374 372 318 391 288 C 410 258 441 244 483 244 Z M 403 1794 L 397 1794 C 368 1794 352 1764 348 1706 L 170 1706 C 172 1788 190 1856 223 1908 C 256 1960 301 1987 358 1987 C 387 1987 413 1982 435 1973 C 457 1964 478 1948 500 1925 C 523 1897 545 1884 566 1884 C 585 1884 599 1891 608 1905 C 617 1919 623 1943 625 1978 L 799 1978 C 795 1884 777 1814 743 1766 C 709 1718 664 1694 610 1694 C 586 1694 565 1696 547 1701 C 528 1706 508 1719 487 1741 C 469 1758 454 1771 442 1780 C 430 1789 417 1794 403 1794 Z" unicode="Õ" />
<glyph horiz-adv-x="961" d="M 479 1647 C 567 1647 640 1633 699 1607 C 757 1581 803 1540 837 1486 C 871 1432 894 1359 906 1269 C 918 1179 924 1033 924 831 C 924 727 922 636 918 558 C 914 480 905 397 891 307 C 853 90 716 -18 479 -18 C 366 -18 276 6 210 54 C 143 102 97 176 73 277 C 49 377 37 559 37 821 C 37 977 39 1088 43 1154 C 47 1220 53 1275 63 1319 C 111 1537 250 1647 479 1647 Z M 483 244 C 542 244 580 276 598 340 C 616 404 625 563 625 817 C 625 931 623 1022 619 1089 C 615 1155 609 1212 602 1260 C 594 1308 582 1340 564 1357 C 546 1373 519 1382 483 1382 C 436 1382 404 1365 386 1332 C 368 1299 357 1242 351 1161 C 345 1080 342 964 342 813 C 342 659 345 541 352 458 C 359 374 372 318 391 288 C 410 258 441 244 483 244 Z M 762 1698 L 543 1698 L 543 1956 L 762 1956 L 762 1698 Z M 430 1698 L 213 1698 L 213 1956 L 430 1956 L 430 1698 Z" unicode="Ö" />
<glyph horiz-adv-x="682" d="M 627 909 L 481 768 L 627 623 L 487 477 L 342 623 L 199 477 L 57 623 L 203 768 L 57 909 L 199 1057 L 342 913 L 487 1057 L 627 909 Z" unicode="×" />
<glyph horiz-adv-x="961" d="M 782 1552 C 818 1521 847 1479 868 1427 C 888 1375 903 1306 911 1221 C 919 1135 924 1005 924 831 C 924 727 922 636 918 558 C 914 480 905 397 891 307 C 853 90 716 -18 479 -18 C 398 -18 330 -6 274 18 L 240 -86 L 133 -86 L 186 72 C 127 126 87 204 67 305 C 47 406 37 578 37 821 C 37 977 39 1088 43 1154 C 47 1220 53 1275 63 1319 C 111 1537 250 1647 479 1647 C 563 1647 635 1634 694 1610 L 711 1659 L 817 1659 L 782 1552 Z M 348 535 L 598 1284 C 590 1320 578 1345 560 1360 C 542 1374 517 1382 483 1382 C 436 1382 404 1365 386 1332 C 368 1299 357 1242 351 1161 C 345 1080 342 964 342 813 C 342 705 344 612 348 535 Z M 618 1079 L 371 336 C 379 307 391 284 407 268 C 423 252 448 244 483 244 C 542 244 580 276 598 340 C 616 404 625 563 625 817 C 625 931 622 1018 618 1079 Z" unicode="Ø" />
<glyph horiz-adv-x="944" d="M 889 369 C 889 249 852 154 779 86 C 705 18 605 -16 477 -16 C 343 -16 239 18 165 86 C 90 154 53 249 53 373 L 53 1634 L 350 1634 L 350 381 C 350 289 391 244 473 244 C 510 244 539 255 559 279 C 579 302 590 335 590 379 L 590 1634 L 889 1634 L 889 369 Z M 612 1698 L 354 1698 L 178 1997 L 471 1997 L 612 1698 Z" unicode="Ù" />
<glyph horiz-adv-x="944" d="M 889 369 C 889 249 852 154 779 86 C 705 18 605 -16 477 -16 C 343 -16 239 18 165 86 C 90 154 53 249 53 373 L 53 1634 L 350 1634 L 350 381 C 350 289 391 244 473 244 C 510 244 539 255 559 279 C 579 302 590 335 590 379 L 590 1634 L 889 1634 L 889 369 Z M 340 1698 L 479 1997 L 770 1997 L 594 1698 L 340 1698 Z" unicode="Ú" />
<glyph horiz-adv-x="944" d="M 889 369 C 889 249 852 154 779 86 C 705 18 605 -16 477 -16 C 343 -16 239 18 165 86 C 90 154 53 249 53 373 L 53 1634 L 350 1634 L 350 381 C 350 289 391 244 473 244 C 510 244 539 255 559 279 C 579 302 590 335 590 379 L 590 1634 L 889 1634 L 889 369 Z M 772 1698 L 547 1698 L 473 1833 L 397 1698 L 178 1698 L 334 1997 L 616 1997 L 772 1698 Z" unicode="Û" />
<glyph horiz-adv-x="944" d="M 889 369 C 889 249 852 154 779 86 C 705 18 605 -16 477 -16 C 343 -16 239 18 165 86 C 90 154 53 249 53 373 L 53 1634 L 350 1634 L 350 381 C 350 289 391 244 473 244 C 510 244 539 255 559 279 C 579 302 590 335 590 379 L 590 1634 L 889 1634 L 889 369 Z M 750 1696 L 530 1696 L 530 1954 L 750 1954 L 750 1696 Z M 418 1696 L 201 1696 L 201 1954 L 418 1954 L 418 1696 Z" unicode="Ü" />
<glyph horiz-adv-x="985" d="M 985 1634 L 633 612 L 633 0 L 334 0 L 334 606 L 0 1634 L 305 1634 L 448 1094 L 483 952 L 500 1006 L 690 1634 L 985 1634 Z M 334 1696 L 473 1995 L 764 1995 L 588 1696 L 334 1696 Z" unicode="Ý" />
<glyph horiz-adv-x="934" d="M 375 1634 L 375 1346 L 545 1346 C 699 1346 798 1285 842 1163 C 860 1131 876 1086 888 1030 C 900 973 907 908 907 836 C 907 764 901 699 889 641 C 877 583 860 538 838 506 C 789 392 693 334 549 330 L 448 328 L 369 328 L 369 0 L 61 0 L 61 1634 L 375 1634 Z M 600 823 L 597 895 L 594 913 C 592 967 583 1006 567 1030 C 551 1054 525 1067 489 1067 L 369 1067 L 369 582 L 485 582 C 518 582 543 591 559 610 C 575 629 586 659 592 700 C 597 741 600 782 600 823 Z" unicode="Þ" />
<glyph horiz-adv-x="1221" d="M 485 1419 C 448 1419 423 1408 409 1387 C 395 1365 389 1336 389 1298 L 389 0 L 111 0 L 111 891 L 10 891 L 10 1126 L 111 1126 L 111 1335 C 111 1431 146 1507 217 1562 C 287 1617 383 1645 504 1645 C 608 1645 692 1617 756 1563 C 820 1509 852 1438 852 1350 C 852 1313 845 1278 833 1244 C 821 1210 801 1173 773 1131 C 742 1085 721 1047 710 1018 C 699 989 694 960 694 932 C 694 898 697 870 704 849 C 710 828 721 810 737 795 C 753 779 782 761 825 739 L 893 704 L 977 662 C 1057 622 1113 574 1147 518 C 1181 462 1198 391 1198 307 C 1198 205 1166 125 1104 69 C 1041 12 950 -16 831 -16 C 712 -16 623 2 563 39 C 503 76 469 135 461 217 C 458 239 456 280 455 340 L 453 377 L 733 377 L 737 262 C 738 238 746 220 761 206 C 776 192 798 186 827 186 C 889 186 920 223 920 297 C 920 344 913 379 900 403 C 887 426 859 451 815 477 C 707 537 633 579 595 605 C 557 630 527 655 507 681 C 487 706 472 736 463 771 C 453 806 449 851 449 905 C 449 981 469 1055 509 1125 C 549 1195 569 1252 569 1298 C 569 1336 563 1365 552 1387 C 540 1408 518 1419 485 1419 Z" unicode="ß" />
<glyph horiz-adv-x="807" d="M 770 0 L 510 0 C 508 0 505 10 503 31 C 501 52 500 69 500 82 C 452 22 376 -8 272 -8 C 196 -8 137 11 95 49 C 52 87 29 139 27 205 L 25 282 L 25 336 C 25 392 32 438 46 474 C 60 510 81 543 109 571 C 137 599 171 623 212 642 C 252 661 298 675 350 685 C 401 695 450 700 496 700 L 496 767 L 494 836 C 491 887 464 913 414 913 C 378 913 354 903 340 884 C 326 864 319 835 319 797 L 319 733 L 66 733 L 66 817 C 66 927 94 1008 151 1061 C 208 1114 297 1141 418 1141 C 529 1141 613 1118 669 1074 C 725 1030 755 966 758 883 L 760 698 L 756 201 C 756 79 760 12 770 0 Z M 496 514 C 460 514 429 510 402 503 C 375 495 354 485 339 473 C 323 460 313 446 307 432 C 301 417 299 393 299 360 C 299 296 301 257 306 244 C 311 230 321 220 335 214 C 349 208 365 205 383 205 C 407 205 428 211 447 224 C 465 236 477 254 483 278 C 489 302 492 334 493 376 C 494 417 495 442 497 451 L 497 475 L 496 514 Z M 563 1200 L 305 1200 L 129 1499 L 422 1499 L 563 1200 Z" unicode="à" />
<glyph horiz-adv-x="807" d="M 770 0 L 510 0 C 508 0 505 10 503 31 C 501 52 500 69 500 82 C 452 22 376 -8 272 -8 C 196 -8 137 11 95 49 C 52 87 29 139 27 205 L 25 282 L 25 336 C 25 392 32 438 46 474 C 60 510 81 543 109 571 C 137 599 171 623 212 642 C 252 661 298 675 350 685 C 401 695 450 700 496 700 L 496 767 L 494 836 C 491 887 464 913 414 913 C 378 913 354 903 340 884 C 326 864 319 835 319 797 L 319 733 L 66 733 L 66 817 C 66 927 94 1008 151 1061 C 208 1114 297 1141 418 1141 C 529 1141 613 1118 669 1074 C 725 1030 755 966 758 883 L 760 698 L 756 201 C 756 79 760 12 770 0 Z M 496 514 C 460 514 429 510 402 503 C 375 495 354 485 339 473 C 323 460 313 446 307 432 C 301 417 299 393 299 360 C 299 296 301 257 306 244 C 311 230 321 220 335 214 C 349 208 365 205 383 205 C 407 205 428 211 447 224 C 465 236 477 254 483 278 C 489 302 492 334 493 376 C 494 417 495 442 497 451 L 497 475 L 496 514 Z M 264 1200 L 403 1499 L 694 1499 L 518 1200 L 264 1200 Z" unicode="á" />
<glyph horiz-adv-x="807" d="M 770 0 L 510 0 C 508 0 505 10 503 31 C 501 52 500 69 500 82 C 452 22 376 -8 272 -8 C 196 -8 137 11 95 49 C 52 87 29 139 27 205 L 25 282 L 25 336 C 25 392 32 438 46 474 C 60 510 81 543 109 571 C 137 599 171 623 212 642 C 252 661 298 675 350 685 C 401 695 450 700 496 700 L 496 767 L 494 836 C 491 887 464 913 414 913 C 378 913 354 903 340 884 C 326 864 319 835 319 797 L 319 733 L 66 733 L 66 817 C 66 927 94 1008 151 1061 C 208 1114 297 1141 418 1141 C 529 1141 613 1118 669 1074 C 725 1030 755 966 758 883 L 760 698 L 756 201 C 756 79 760 12 770 0 Z M 496 514 C 460 514 429 510 402 503 C 375 495 354 485 339 473 C 323 460 313 446 307 432 C 301 417 299 393 299 360 C 299 296 301 257 306 244 C 311 230 321 220 335 214 C 349 208 365 205 383 205 C 407 205 428 211 447 224 C 465 236 477 254 483 278 C 489 302 492 334 493 376 C 494 417 495 442 497 451 L 497 475 L 496 514 Z M 719 1202 L 494 1202 L 420 1337 L 344 1202 L 125 1202 L 281 1501 L 563 1501 L 719 1202 Z" unicode="â" />
<glyph horiz-adv-x="807" d="M 770 0 L 510 0 C 508 0 505 10 503 31 C 501 52 500 69 500 82 C 452 22 376 -8 272 -8 C 196 -8 137 11 95 49 C 52 87 29 139 27 205 L 25 282 L 25 336 C 25 392 32 438 46 474 C 60 510 81 543 109 571 C 137 599 171 623 212 642 C 252 661 298 675 350 685 C 401 695 450 700 496 700 L 496 767 L 494 836 C 491 887 464 913 414 913 C 378 913 354 903 340 884 C 326 864 319 835 319 797 L 319 733 L 66 733 L 66 817 C 66 927 94 1008 151 1061 C 208 1114 297 1141 418 1141 C 529 1141 613 1118 669 1074 C 725 1030 755 966 758 883 L 760 698 L 756 201 C 756 79 760 12 770 0 Z M 496 514 C 460 514 429 510 402 503 C 375 495 354 485 339 473 C 323 460 313 446 307 432 C 301 417 299 393 299 360 C 299 296 301 257 306 244 C 311 230 321 220 335 214 C 349 208 365 205 383 205 C 407 205 428 211 447 224 C 465 236 477 254 483 278 C 489 302 492 334 493 376 C 494 417 495 442 497 451 L 497 475 L 496 514 Z M 328 1296 L 322 1296 C 292 1296 276 1266 272 1208 L 94 1208 C 96 1292 114 1359 148 1411 C 182 1463 227 1489 283 1489 C 311 1489 337 1484 359 1476 C 381 1467 402 1451 424 1427 C 449 1399 471 1386 491 1386 C 509 1386 523 1392 532 1406 C 541 1420 547 1445 549 1481 L 723 1481 C 719 1387 701 1316 667 1268 C 633 1220 589 1196 535 1196 C 505 1196 481 1199 464 1206 C 447 1212 430 1225 412 1243 L 387 1267 C 366 1286 346 1296 328 1296 Z" unicode="ã" />
<glyph horiz-adv-x="807" d="M 770 0 L 510 0 C 508 0 505 10 503 31 C 501 52 500 69 500 82 C 452 22 376 -8 272 -8 C 196 -8 137 11 95 49 C 52 87 29 139 27 205 L 25 282 L 25 336 C 25 392 32 438 46 474 C 60 510 81 543 109 571 C 137 599 171 623 212 642 C 252 661 298 675 350 685 C 401 695 450 700 496 700 L 496 767 L 494 836 C 491 887 464 913 414 913 C 378 913 354 903 340 884 C 326 864 319 835 319 797 L 319 733 L 66 733 L 66 817 C 66 927 94 1008 151 1061 C 208 1114 297 1141 418 1141 C 529 1141 613 1118 669 1074 C 725 1030 755 966 758 883 L 760 698 L 756 201 C 756 79 760 12 770 0 Z M 496 514 C 460 514 429 510 402 503 C 375 495 354 485 339 473 C 323 460 313 446 307 432 C 301 417 299 393 299 360 C 299 296 301 257 306 244 C 311 230 321 220 335 214 C 349 208 365 205 383 205 C 407 205 428 211 447 224 C 465 236 477 254 483 278 C 489 302 492 334 493 376 C 494 417 495 442 497 451 L 497 475 L 496 514 Z M 686 1200 L 467 1200 L 467 1458 L 686 1458 L 686 1200 Z M 354 1200 L 137 1200 L 137 1458 L 354 1458 L 354 1200 Z" unicode="ä" />
<glyph horiz-adv-x="807" d="M 770 0 L 510 0 C 508 0 505 10 503 31 C 501 52 500 69 500 82 C 452 22 376 -8 272 -8 C 196 -8 137 11 95 49 C 52 87 29 139 27 205 L 25 282 L 25 336 C 25 392 32 438 46 474 C 60 510 81 543 109 571 C 137 599 171 623 212 642 C 252 661 298 675 350 685 C 401 695 450 700 496 700 L 496 767 L 494 836 C 491 887 464 913 414 913 C 378 913 354 903 340 884 C 326 864 319 835 319 797 L 319 733 L 66 733 L 66 817 C 66 927 94 1008 151 1061 C 208 1114 297 1141 418 1141 C 529 1141 613 1118 669 1074 C 725 1030 755 966 758 883 L 760 698 L 756 201 C 756 79 760 12 770 0 Z M 496 514 C 460 514 429 510 402 503 C 375 495 354 485 339 473 C 323 460 313 446 307 432 C 301 417 299 393 299 360 C 299 296 301 257 306 244 C 311 230 321 220 335 214 C 349 208 365 205 383 205 C 407 205 428 211 447 224 C 465 236 477 254 483 278 C 489 302 492 334 493 376 C 494 417 495 442 497 451 L 497 475 L 496 514 Z M 430 1577 C 485 1577 532 1557 571 1519 C 609 1480 629 1432 629 1376 C 629 1318 609 1270 571 1230 C 532 1190 485 1171 430 1171 C 375 1171 328 1190 290 1229 C 252 1268 233 1317 233 1376 C 233 1433 251 1481 289 1519 C 327 1557 374 1577 430 1577 Z M 430 1446 C 412 1446 397 1439 385 1425 C 373 1411 367 1394 367 1376 C 367 1356 373 1340 385 1326 C 397 1312 412 1305 430 1305 C 448 1305 464 1312 478 1326 C 491 1340 498 1356 498 1376 C 498 1394 491 1411 478 1425 C 464 1439 448 1446 430 1446 Z" unicode="å" />
<glyph horiz-adv-x="1249" d="M 868 1141 C 955 1141 1027 1120 1084 1079 C 1141 1038 1179 979 1199 902 C 1218 824 1228 718 1228 584 L 1225 469 L 760 469 C 760 397 762 335 768 285 C 770 262 779 243 797 228 C 814 212 836 205 862 205 C 882 205 902 209 920 219 C 938 229 951 249 958 279 C 965 309 969 338 969 367 L 1219 367 C 1219 323 1211 273 1197 218 C 1182 163 1159 119 1129 85 C 1098 51 1062 26 1021 10 C 980 -5 930 -14 872 -14 C 790 -14 722 0 668 26 C 614 53 577 93 555 145 C 538 95 508 57 464 31 C 420 5 360 -8 283 -8 C 205 -8 144 11 99 49 C 53 87 29 139 27 205 L 25 282 L 25 336 C 25 392 32 438 46 474 C 60 510 81 543 109 571 C 137 599 171 623 212 642 C 252 661 298 675 350 685 C 401 695 450 700 496 700 L 496 767 L 494 836 C 491 887 464 913 414 913 C 366 913 339 893 331 854 C 323 814 319 774 319 733 L 63 733 C 63 877 91 981 149 1045 C 207 1109 296 1141 418 1141 C 522 1141 600 1115 651 1063 C 665 1085 691 1103 731 1118 C 771 1133 816 1141 868 1141 Z M 967 670 C 967 772 960 838 947 869 C 933 899 906 915 864 915 C 838 915 816 908 800 895 C 783 882 771 862 765 836 C 759 809 756 754 756 670 L 967 670 Z M 496 514 C 460 514 429 510 402 503 C 375 495 354 485 339 473 C 323 460 313 446 307 432 C 301 417 299 393 299 360 C 299 296 301 257 306 244 C 311 230 321 220 335 214 C 349 208 365 205 383 205 C 407 205 428 211 447 224 C 465 236 477 254 483 278 C 489 302 492 334 493 376 C 494 417 495 442 497 451 L 497 475 L 496 514 Z" unicode="æ" />
<glyph horiz-adv-x="782" d="M 319 -8 C 265 0 220 17 183 41 C 146 65 118 96 98 134 C 78 172 62 231 50 313 C 38 395 33 478 33 563 C 33 640 36 704 42 756 C 48 807 59 861 76 917 C 92 973 115 1016 145 1046 C 174 1076 210 1100 253 1116 C 295 1132 345 1141 401 1141 C 471 1141 530 1131 579 1111 C 628 1091 666 1061 693 1023 C 719 984 736 940 744 891 C 752 842 756 768 756 668 L 500 668 C 500 706 497 746 492 787 C 487 827 481 855 473 870 C 465 885 456 895 444 901 C 432 906 419 909 403 909 C 375 909 354 900 339 882 C 324 864 314 823 309 761 C 303 699 301 632 301 561 C 301 495 303 430 309 366 C 314 302 323 260 337 242 C 351 224 374 215 406 215 C 438 215 462 227 478 253 C 494 279 502 330 502 407 L 502 453 L 756 453 C 756 367 753 307 749 273 C 744 239 734 204 720 167 C 706 130 686 99 662 75 C 637 51 609 32 577 18 C 545 4 509 -4 469 -10 L 469 -43 C 517 -47 556 -63 587 -92 C 617 -120 633 -159 633 -207 C 633 -267 609 -313 563 -346 C 516 -379 449 -396 362 -397 C 321 -397 276 -393 227 -385 L 227 -250 C 259 -255 286 -258 309 -258 C 348 -258 378 -250 399 -236 C 419 -222 430 -202 430 -176 C 430 -124 393 -98 319 -98 L 319 -8 Z" unicode="ç" />
<glyph horiz-adv-x="791" d="M 758 367 C 758 320 751 270 737 218 C 723 165 701 122 671 88 C 641 54 605 28 561 11 C 517 -5 467 -14 412 -14 C 262 -14 161 28 110 113 C 58 198 33 346 33 557 C 33 778 61 931 119 1015 C 177 1099 273 1141 408 1141 C 494 1141 565 1120 622 1080 C 678 1039 717 981 737 905 C 757 829 767 722 767 584 L 764 469 L 299 469 C 299 397 301 335 307 285 C 309 262 318 243 336 228 C 353 212 375 205 401 205 C 423 205 443 210 462 220 C 480 230 493 250 499 280 C 505 309 508 338 508 367 L 758 367 Z M 506 670 C 506 780 498 848 483 875 C 468 901 441 915 403 915 C 376 915 354 908 338 894 C 321 880 310 860 304 833 C 298 806 295 752 295 670 L 506 670 Z M 557 1200 L 299 1200 L 123 1499 L 416 1499 L 557 1200 Z" unicode="è" />
<glyph horiz-adv-x="791" d="M 758 367 C 758 320 751 270 737 218 C 723 165 701 122 671 88 C 641 54 605 28 561 11 C 517 -5 467 -14 412 -14 C 262 -14 161 28 110 113 C 58 198 33 346 33 557 C 33 778 61 931 119 1015 C 177 1099 273 1141 408 1141 C 494 1141 565 1120 622 1080 C 678 1039 717 981 737 905 C 757 829 767 722 767 584 L 764 469 L 299 469 C 299 397 301 335 307 285 C 309 262 318 243 336 228 C 353 212 375 205 401 205 C 423 205 443 210 462 220 C 480 230 493 250 499 280 C 505 309 508 338 508 367 L 758 367 Z M 506 670 C 506 780 498 848 483 875 C 468 901 441 915 403 915 C 376 915 354 908 338 894 C 321 880 310 860 304 833 C 298 806 295 752 295 670 L 506 670 Z M 254 1200 L 393 1499 L 684 1499 L 508 1200 L 254 1200 Z" unicode="é" />
<glyph horiz-adv-x="791" d="M 758 367 C 758 320 751 270 737 218 C 723 165 701 122 671 88 C 641 54 605 28 561 11 C 517 -5 467 -14 412 -14 C 262 -14 161 28 110 113 C 58 198 33 346 33 557 C 33 778 61 931 119 1015 C 177 1099 273 1141 408 1141 C 494 1141 565 1120 622 1080 C 678 1039 717 981 737 905 C 757 829 767 722 767 584 L 764 469 L 299 469 C 299 397 301 335 307 285 C 309 262 318 243 336 228 C 353 212 375 205 401 205 C 423 205 443 210 462 220 C 480 230 493 250 499 280 C 505 309 508 338 508 367 L 758 367 Z M 506 670 C 506 780 498 848 483 875 C 468 901 441 915 403 915 C 376 915 354 908 338 894 C 321 880 310 860 304 833 C 298 806 295 752 295 670 L 506 670 Z M 709 1202 L 483 1202 L 410 1337 L 334 1202 L 115 1202 L 270 1501 L 553 1501 L 709 1202 Z" unicode="ê" />
<glyph horiz-adv-x="791" d="M 758 367 C 758 320 751 270 737 218 C 723 165 701 122 671 88 C 641 54 605 28 561 11 C 517 -5 467 -14 412 -14 C 262 -14 161 28 110 113 C 58 198 33 346 33 557 C 33 778 61 931 119 1015 C 177 1099 273 1141 408 1141 C 494 1141 565 1120 622 1080 C 678 1039 717 981 737 905 C 757 829 767 722 767 584 L 764 469 L 299 469 C 299 397 301 335 307 285 C 309 262 318 243 336 228 C 353 212 375 205 401 205 C 423 205 443 210 462 220 C 480 230 493 250 499 280 C 505 309 508 338 508 367 L 758 367 Z M 506 670 C 506 780 498 848 483 875 C 468 901 441 915 403 915 C 376 915 354 908 338 894 C 321 880 310 860 304 833 C 298 806 295 752 295 670 L 506 670 Z M 682 1200 L 463 1200 L 463 1458 L 682 1458 L 682 1200 Z M 350 1200 L 133 1200 L 133 1458 L 350 1458 L 350 1200 Z" unicode="ë" />
<glyph horiz-adv-x="391" d="M 348 0 L 72 0 C 60 2 55 28 55 78 L 55 1126 L 336 1126 L 336 82 C 336 60 337 42 341 26 C 344 10 346 1 348 0 Z M 342 1200 L 84 1200 L -92 1499 L 201 1499 L 342 1200 Z" unicode="ì" />
<glyph horiz-adv-x="391" d="M 348 0 L 72 0 C 60 2 55 28 55 78 L 55 1126 L 336 1126 L 336 82 C 336 60 337 42 341 26 C 344 10 346 1 348 0 Z M 57 1200 L 197 1499 L 487 1499 L 311 1200 L 57 1200 Z" unicode="í" />
<glyph horiz-adv-x="391" d="M 348 0 L 72 0 C 60 2 55 28 55 78 L 55 1126 L 336 1126 L 336 82 C 336 60 337 42 341 26 C 344 10 346 1 348 0 Z M 500 1202 L 274 1202 L 201 1337 L 125 1202 L -94 1202 L 61 1501 L 344 1501 L 500 1202 Z" unicode="î" />
<glyph horiz-adv-x="391" d="M 348 0 L 72 0 C 60 2 55 28 55 78 L 55 1126 L 336 1126 L 336 82 C 336 60 337 42 341 26 C 344 10 346 1 348 0 Z M 471 1200 L 252 1200 L 252 1458 L 471 1458 L 471 1200 Z M 139 1200 L -78 1200 L -78 1458 L 139 1458 L 139 1200 Z" unicode="ï" />
<glyph horiz-adv-x="846" d="M 524 1100 C 507 1093 489 1090 469 1090 C 433 1090 400 1101 371 1123 C 342 1145 320 1181 305 1229 L 399 1274 C 405 1254 413 1237 423 1223 C 432 1209 446 1202 465 1202 C 482 1202 501 1207 522 1219 L 516 1315 C 509 1397 476 1438 416 1438 C 378 1438 354 1429 342 1413 C 330 1396 324 1371 324 1339 L 324 1313 L 59 1313 L 59 1333 C 59 1392 67 1440 83 1477 C 99 1513 121 1544 151 1570 C 181 1595 218 1615 262 1629 C 306 1643 356 1651 414 1651 C 512 1651 591 1627 651 1579 C 711 1531 749 1462 766 1372 L 780 1300 C 797 1308 816 1313 836 1313 C 874 1313 906 1301 933 1277 C 959 1253 979 1221 993 1182 L 907 1126 C 893 1175 870 1200 838 1200 C 828 1200 821 1198 815 1195 C 809 1191 802 1188 795 1184 L 800 1112 C 808 999 813 919 813 872 C 813 779 810 679 805 571 C 799 463 791 374 781 305 C 770 236 749 177 719 128 C 689 79 648 43 598 19 C 547 -4 486 -16 414 -16 C 322 -16 248 0 194 31 C 140 63 99 112 73 179 C 46 246 33 360 33 521 C 33 662 41 768 59 840 C 78 892 110 934 156 966 C 202 998 261 1014 334 1014 C 374 1014 408 1008 436 998 C 464 988 495 968 530 938 L 524 1100 Z M 420 211 C 446 211 467 216 483 226 C 499 236 510 254 516 279 C 522 303 527 375 530 493 C 532 611 534 678 535 696 C 515 762 479 795 426 795 C 372 795 338 770 326 721 C 322 701 320 632 320 514 C 320 428 320 370 321 339 C 322 308 326 283 334 264 C 341 245 351 231 365 223 C 379 215 397 211 420 211 Z" unicode="ð" />
<glyph horiz-adv-x="815" d="M 772 0 L 502 0 C 498 0 496 37 495 111 C 494 185 494 305 494 472 L 494 809 C 494 870 469 901 420 901 C 393 901 370 891 352 871 C 333 851 324 818 324 772 L 324 0 L 53 0 L 53 1126 L 317 1126 L 317 1016 C 329 1054 355 1085 394 1107 C 432 1129 478 1141 532 1141 C 688 1141 766 1053 766 879 L 766 513 C 766 171 768 0 772 0 Z M 352 1296 L 346 1296 C 317 1296 301 1266 297 1208 L 119 1208 C 121 1290 139 1358 172 1410 C 205 1462 250 1489 307 1489 C 336 1489 362 1484 384 1476 C 406 1467 427 1451 449 1427 C 473 1399 495 1386 515 1386 C 534 1386 548 1393 557 1407 C 565 1421 571 1446 573 1481 L 748 1481 C 744 1387 726 1316 692 1268 C 658 1220 613 1196 559 1196 C 535 1196 514 1198 496 1203 C 477 1208 457 1221 436 1243 C 417 1260 402 1273 391 1282 C 379 1291 366 1296 352 1296 Z" unicode="ñ" />
<glyph horiz-adv-x="817" d="M 782 565 C 782 341 751 189 691 108 C 631 26 536 -14 406 -14 C 354 -14 306 -6 264 8 C 222 22 185 43 155 71 C 125 98 101 131 84 170 C 66 209 53 267 44 344 C 35 420 31 494 31 565 C 31 656 38 742 52 824 C 66 905 88 967 118 1009 C 147 1051 187 1083 237 1106 C 287 1129 344 1141 410 1141 C 501 1141 576 1120 634 1079 C 692 1037 732 976 752 896 C 772 815 782 705 782 565 Z M 516 561 C 516 607 514 661 512 725 C 509 789 505 828 501 843 C 497 858 491 870 483 880 C 475 890 466 897 454 902 C 442 906 426 909 408 909 C 358 909 327 882 313 829 C 305 793 301 703 301 561 C 301 491 302 428 305 372 C 307 316 312 279 320 262 C 327 245 338 232 353 223 C 367 213 386 209 408 209 C 433 209 454 217 472 233 C 490 249 500 267 504 289 C 511 338 515 385 515 429 C 515 473 516 517 516 561 Z M 551 1200 L 293 1200 L 117 1499 L 410 1499 L 551 1200 Z" unicode="ò" />
<glyph horiz-adv-x="817" d="M 782 565 C 782 341 751 189 691 108 C 631 26 536 -14 406 -14 C 354 -14 306 -6 264 8 C 222 22 185 43 155 71 C 125 98 101 131 84 170 C 66 209 53 267 44 344 C 35 420 31 494 31 565 C 31 656 38 742 52 824 C 66 905 88 967 118 1009 C 147 1051 187 1083 237 1106 C 287 1129 344 1141 410 1141 C 501 1141 576 1120 634 1079 C 692 1037 732 976 752 896 C 772 815 782 705 782 565 Z M 516 561 C 516 607 514 661 512 725 C 509 789 505 828 501 843 C 497 858 491 870 483 880 C 475 890 466 897 454 902 C 442 906 426 909 408 909 C 358 909 327 882 313 829 C 305 793 301 703 301 561 C 301 491 302 428 305 372 C 307 316 312 279 320 262 C 327 245 338 232 353 223 C 367 213 386 209 408 209 C 433 209 454 217 472 233 C 490 249 500 267 504 289 C 511 338 515 385 515 429 C 515 473 516 517 516 561 Z M 272 1200 L 412 1499 L 702 1499 L 526 1200 L 272 1200 Z" unicode="ó" />
<glyph horiz-adv-x="817" d="M 782 565 C 782 341 751 189 691 108 C 631 26 536 -14 406 -14 C 354 -14 306 -6 264 8 C 222 22 185 43 155 71 C 125 98 101 131 84 170 C 66 209 53 267 44 344 C 35 420 31 494 31 565 C 31 656 38 742 52 824 C 66 905 88 967 118 1009 C 147 1051 187 1083 237 1106 C 287 1129 344 1141 410 1141 C 501 1141 576 1120 634 1079 C 692 1037 732 976 752 896 C 772 815 782 705 782 565 Z M 516 561 C 516 607 514 661 512 725 C 509 789 505 828 501 843 C 497 858 491 870 483 880 C 475 890 466 897 454 902 C 442 906 426 909 408 909 C 358 909 327 882 313 829 C 305 793 301 703 301 561 C 301 491 302 428 305 372 C 307 316 312 279 320 262 C 327 245 338 232 353 223 C 367 213 386 209 408 209 C 433 209 454 217 472 233 C 490 249 500 267 504 289 C 511 338 515 385 515 429 C 515 473 516 517 516 561 Z M 707 1202 L 481 1202 L 408 1337 L 332 1202 L 113 1202 L 268 1501 L 551 1501 L 707 1202 Z" unicode="ô" />
<glyph horiz-adv-x="817" d="M 782 565 C 782 341 751 189 691 108 C 631 26 536 -14 406 -14 C 354 -14 306 -6 264 8 C 222 22 185 43 155 71 C 125 98 101 131 84 170 C 66 209 53 267 44 344 C 35 420 31 494 31 565 C 31 656 38 742 52 824 C 66 905 88 967 118 1009 C 147 1051 187 1083 237 1106 C 287 1129 344 1141 410 1141 C 501 1141 576 1120 634 1079 C 692 1037 732 976 752 896 C 772 815 782 705 782 565 Z M 516 561 C 516 607 514 661 512 725 C 509 789 505 828 501 843 C 497 858 491 870 483 880 C 475 890 466 897 454 902 C 442 906 426 909 408 909 C 358 909 327 882 313 829 C 305 793 301 703 301 561 C 301 491 302 428 305 372 C 307 316 312 279 320 262 C 327 245 338 232 353 223 C 367 213 386 209 408 209 C 433 209 454 217 472 233 C 490 249 500 267 504 289 C 511 338 515 385 515 429 C 515 473 516 517 516 561 Z M 323 1296 L 317 1296 C 288 1296 272 1266 268 1208 L 90 1208 C 92 1292 110 1359 144 1411 C 178 1463 223 1489 279 1489 C 307 1489 333 1484 355 1476 C 377 1467 398 1451 420 1427 C 445 1399 467 1386 487 1386 C 505 1386 519 1392 528 1406 C 537 1420 543 1445 545 1481 L 719 1481 C 715 1387 697 1316 663 1268 C 629 1220 584 1196 530 1196 C 506 1196 485 1198 467 1203 C 449 1208 429 1221 408 1243 C 389 1260 374 1273 362 1282 C 350 1291 337 1296 323 1296 Z" unicode="õ" />
<glyph horiz-adv-x="817" d="M 782 565 C 782 341 751 189 691 108 C 631 26 536 -14 406 -14 C 354 -14 306 -6 264 8 C 222 22 185 43 155 71 C 125 98 101 131 84 170 C 66 209 53 267 44 344 C 35 420 31 494 31 565 C 31 656 38 742 52 824 C 66 905 88 967 118 1009 C 147 1051 187 1083 237 1106 C 287 1129 344 1141 410 1141 C 501 1141 576 1120 634 1079 C 692 1037 732 976 752 896 C 772 815 782 705 782 565 Z M 516 561 C 516 607 514 661 512 725 C 509 789 505 828 501 843 C 497 858 491 870 483 880 C 475 890 466 897 454 902 C 442 906 426 909 408 909 C 358 909 327 882 313 829 C 305 793 301 703 301 561 C 301 491 302 428 305 372 C 307 316 312 279 320 262 C 327 245 338 232 353 223 C 367 213 386 209 408 209 C 433 209 454 217 472 233 C 490 249 500 267 504 289 C 511 338 515 385 515 429 C 515 473 516 517 516 561 Z M 684 1200 L 465 1200 L 465 1458 L 684 1458 L 684 1200 Z M 352 1200 L 135 1200 L 135 1458 L 352 1458 L 352 1200 Z" unicode="ö" />
<glyph horiz-adv-x="1536" d="M 208 684 L 208 896 L 1328 896 L 1328 684 L 208 684 Z M 768 228 C 725 228 688 244 656 276 C 624 308 608 345 608 388 C 608 430 622 468 650 500 C 678 532 717 548 768 548 C 816 548 854 532 884 500 C 913 468 928 430 928 388 C 928 345 912 308 880 276 C 848 244 810 228 768 228 Z M 768 1028 C 725 1028 688 1044 656 1076 C 624 1108 608 1145 608 1188 C 608 1230 622 1268 650 1300 C 678 1332 717 1348 768 1348 C 816 1348 854 1332 884 1300 C 913 1268 928 1230 928 1188 C 928 1145 912 1108 880 1076 C 848 1044 810 1028 768 1028 Z" unicode="÷" />
<glyph horiz-adv-x="817" d="M 176 53 C 140 80 111 114 90 156 C 69 198 54 258 45 338 C 35 417 31 493 31 565 C 31 656 38 742 52 824 C 66 905 88 967 118 1009 C 147 1051 187 1083 237 1106 C 287 1129 344 1141 410 1141 C 463 1141 515 1132 567 1114 L 590 1178 L 676 1178 L 637 1077 C 694 1035 732 974 752 893 C 772 811 782 702 782 565 C 782 341 751 189 691 108 C 631 26 536 -14 406 -14 C 344 -14 291 -4 246 14 L 219 -55 L 135 -55 L 176 53 Z M 305 381 L 487 874 C 472 897 446 909 408 909 C 358 909 327 882 313 829 C 305 793 301 703 301 561 L 305 381 Z M 512 752 L 326 252 C 342 223 369 209 408 209 C 433 209 454 217 472 233 C 490 249 500 267 504 289 C 511 338 515 385 515 429 C 515 473 516 517 516 561 L 512 752 Z" unicode="ø" />
<glyph horiz-adv-x="813" d="M 766 0 L 506 0 L 498 70 C 478 44 451 25 416 12 C 381 -1 343 -8 301 -8 C 131 -8 47 89 47 283 L 47 1005 L 45 1126 L 319 1126 C 321 1126 322 1041 322 871 L 322 309 C 322 275 328 251 341 237 C 354 223 374 217 401 217 C 430 217 452 226 467 246 C 481 266 489 298 489 342 L 489 1126 L 762 1126 L 762 135 L 766 0 Z M 569 1200 L 311 1200 L 135 1499 L 428 1499 L 569 1200 Z" unicode="ù" />
<glyph horiz-adv-x="813" d="M 766 0 L 506 0 L 498 70 C 478 44 451 25 416 12 C 381 -1 343 -8 301 -8 C 131 -8 47 89 47 283 L 47 1005 L 45 1126 L 319 1126 C 321 1126 322 1041 322 871 L 322 309 C 322 275 328 251 341 237 C 354 223 374 217 401 217 C 430 217 452 226 467 246 C 481 266 489 298 489 342 L 489 1126 L 762 1126 L 762 135 L 766 0 Z M 258 1200 L 397 1499 L 688 1499 L 512 1200 L 258 1200 Z" unicode="ú" />
<glyph horiz-adv-x="813" d="M 766 0 L 506 0 L 498 70 C 478 44 451 25 416 12 C 381 -1 343 -8 301 -8 C 131 -8 47 89 47 283 L 47 1005 L 45 1126 L 319 1126 C 321 1126 322 1041 322 871 L 322 309 C 322 275 328 251 341 237 C 354 223 374 217 401 217 C 430 217 452 226 467 246 C 481 266 489 298 489 342 L 489 1126 L 762 1126 L 762 135 L 766 0 Z M 700 1202 L 475 1202 L 401 1337 L 326 1202 L 106 1202 L 262 1501 L 545 1501 L 700 1202 Z" unicode="û" />
<glyph horiz-adv-x="813" d="M 766 0 L 506 0 L 498 70 C 478 44 451 25 416 12 C 381 -1 343 -8 301 -8 C 131 -8 47 89 47 283 L 47 1005 L 45 1126 L 319 1126 C 321 1126 322 1041 322 871 L 322 309 C 322 275 328 251 341 237 C 354 223 374 217 401 217 C 430 217 452 226 467 246 C 481 266 489 298 489 342 L 489 1126 L 762 1126 L 762 135 L 766 0 Z M 684 1200 L 465 1200 L 465 1458 L 684 1458 L 684 1200 Z M 352 1200 L 135 1200 L 135 1458 L 352 1458 L 352 1200 Z" unicode="ü" />
<glyph horiz-adv-x="829" d="M 827 1126 L 459 -334 L 178 -334 L 270 31 L 2 1126 L 281 1126 L 418 401 C 428 454 454 586 494 797 C 534 1008 555 1118 555 1126 L 827 1126 Z M 258 1200 L 397 1499 L 688 1499 L 512 1200 L 258 1200 Z" unicode="ý" />
<glyph horiz-adv-x="831" d="M 805 582 C 805 462 797 356 781 265 C 765 173 735 106 690 62 C 644 18 586 -4 514 -4 C 428 -4 364 16 322 57 L 322 -334 L 53 -334 L 53 1636 L 317 1636 L 317 1040 C 331 1072 357 1096 393 1114 C 429 1132 472 1141 524 1141 C 596 1141 651 1123 690 1089 C 729 1054 758 994 777 908 C 795 822 805 714 805 582 Z M 526 573 C 526 691 521 776 512 828 C 502 880 473 907 424 907 C 406 907 392 903 380 896 C 368 888 358 877 350 862 C 342 846 334 813 328 761 C 322 709 319 647 319 573 C 319 429 324 331 334 279 C 348 237 377 217 422 217 C 473 217 504 242 514 293 C 522 331 526 424 526 573 Z" unicode="þ" />
<glyph horiz-adv-x="829" d="M 827 1126 L 459 -334 L 178 -334 L 270 31 L 2 1126 L 281 1126 L 418 401 C 428 454 454 586 494 797 C 534 1008 555 1118 555 1126 L 827 1126 Z M 694 1200 L 475 1200 L 475 1458 L 694 1458 L 694 1200 Z M 362 1200 L 145 1200 L 145 1458 L 362 1458 L 362 1200 Z" unicode="ÿ" />
<glyph horiz-adv-x="965" d="M 377 887 L 377 0 L 104 0 L 104 887 L 10 887 L 10 1126 L 104 1126 L 104 1368 C 104 1460 127 1528 175 1574 C 222 1619 289 1642 377 1642 C 395 1642 412 1641 428 1641 C 444 1641 470 1639 508 1636 L 508 1415 L 446 1419 C 423 1419 405 1411 393 1396 C 381 1381 375 1360 375 1333 L 375 1126 L 561 1126 L 561 1358 C 561 1451 584 1522 630 1570 C 676 1618 744 1642 834 1642 C 885 1642 920 1641 938 1639 L 961 1636 L 961 1415 L 897 1419 C 853 1419 831 1395 831 1348 L 831 1126 L 956 1126 L 956 887 L 831 887 L 831 0 L 561 0 L 561 887 L 377 887 Z" unicode="ﬀ" />
<glyph horiz-adv-x="924" d="M 575 893 L 385 893 L 385 0 L 111 0 L 111 887 L 10 887 L 10 1126 L 111 1126 L 111 1368 C 111 1458 136 1526 186 1572 C 236 1618 310 1642 406 1642 C 424 1642 441 1641 457 1641 C 472 1641 499 1639 537 1636 L 537 1415 C 519 1417 497 1419 471 1419 C 413 1419 385 1386 385 1321 L 385 1126 L 856 1126 L 856 82 C 856 61 857 42 861 26 C 864 10 866 1 868 0 L 592 0 C 580 4 575 30 575 78 L 575 893 Z" unicode="ﬁ" />
<glyph horiz-adv-x="918" d="M 10 887 L 10 1126 L 104 1126 L 104 1368 C 104 1458 127 1527 174 1573 C 221 1619 289 1642 379 1642 C 419 1642 462 1640 506 1636 L 506 1415 C 491 1417 470 1419 442 1419 C 398 1419 377 1395 377 1348 L 377 1126 L 500 1126 L 500 887 L 379 887 L 379 0 L 104 0 L 104 887 L 10 887 Z M 856 0 L 721 -1 L 628 -1 L 586 0 C 576 6 571 32 571 78 L 571 1538 L 567 1636 L 840 1636 L 844 1567 L 844 84 C 844 34 848 6 856 0 Z" unicode="ﬂ" />
<glyph horiz-adv-x="741" d="M 373 469 C 299 469 236 496 184 550 C 132 604 106 669 106 745 C 106 822 132 887 185 940 C 237 993 300 1020 373 1020 C 445 1020 507 993 559 940 C 611 886 637 821 637 745 C 637 670 611 605 559 551 C 507 496 445 469 373 469 Z" unicode="•" />
<glyph horiz-adv-x="768" d="M 662 1227 L 104 1227 L 104 1407 L 662 1407 L 662 1227 Z" unicode="̄" />
<glyph horiz-adv-x="768" d="M 694 1464 C 694 1382 666 1317 610 1268 C 554 1218 479 1194 385 1194 C 288 1194 212 1218 157 1268 C 101 1318 74 1383 74 1464 L 295 1464 C 295 1437 302 1414 316 1396 C 330 1377 352 1368 383 1368 C 444 1368 475 1400 475 1464 L 694 1464 Z" unicode="˘" />
<glyph horiz-adv-x="768" d="M 498 1202 L 272 1202 L 272 1462 L 498 1462 L 498 1202 Z" unicode="˙" />
<glyph horiz-adv-x="768" d="M 383 1589 C 438 1589 485 1569 524 1531 C 562 1492 582 1445 582 1389 C 582 1331 562 1283 524 1243 C 485 1203 438 1184 383 1184 C 328 1184 281 1203 243 1242 C 205 1281 186 1330 186 1389 C 186 1445 205 1493 243 1531 C 281 1569 327 1589 383 1589 Z M 383 1458 C 365 1458 350 1451 338 1437 C 325 1423 319 1407 319 1389 C 319 1369 325 1352 338 1338 C 350 1324 365 1317 383 1317 C 401 1317 417 1324 431 1338 C 444 1352 451 1369 451 1389 C 451 1407 444 1423 431 1437 C 417 1451 401 1458 383 1458 Z" unicode="˚" />
<glyph horiz-adv-x="1907" d="M 616 1128 C 616 1032 590 956 539 902 C 488 848 417 821 326 821 C 236 821 166 847 117 900 C 67 953 43 1029 43 1128 L 43 1350 C 43 1444 68 1519 119 1574 C 170 1629 241 1657 332 1657 C 420 1657 490 1630 540 1576 C 590 1522 616 1446 616 1350 L 616 1128 Z M 1057 1595 L 356 0 L 207 0 L 909 1595 L 1057 1595 Z M 1870 289 C 1870 191 1844 115 1794 63 C 1744 10 1671 -16 1577 -16 C 1487 -16 1418 10 1369 63 C 1320 115 1296 191 1296 289 L 1296 512 C 1296 604 1321 679 1373 735 C 1424 791 1494 819 1583 819 C 1673 819 1743 791 1794 736 C 1844 680 1870 606 1870 512 L 1870 289 Z M 1239 289 C 1239 191 1213 115 1163 63 C 1113 10 1040 -16 946 -16 C 857 -16 788 10 738 63 C 688 115 664 191 664 289 L 664 512 C 664 605 689 679 741 735 C 793 791 863 819 952 819 C 1042 819 1112 791 1163 736 C 1213 680 1239 606 1239 512 L 1239 289 Z M 416 1139 L 416 1348 C 416 1376 408 1400 393 1420 C 377 1440 357 1450 332 1450 C 302 1450 281 1440 267 1422 C 253 1403 246 1378 246 1348 L 246 1141 C 246 1061 274 1022 332 1022 C 388 1022 416 1061 416 1139 Z M 1669 301 L 1669 510 C 1669 537 1661 561 1647 581 C 1633 601 1611 612 1583 612 C 1527 612 1499 578 1499 510 L 1499 301 C 1499 223 1527 184 1583 184 C 1615 184 1637 194 1650 214 C 1662 234 1669 263 1669 301 Z M 1038 301 L 1038 510 C 1038 540 1030 564 1015 583 C 1000 602 979 612 952 612 C 921 612 899 602 886 582 C 872 562 866 538 866 510 L 866 301 C 866 223 894 184 952 184 C 984 184 1006 194 1019 214 C 1031 234 1038 263 1038 301 Z" unicode="‰" />
<glyph horiz-adv-x="1352" d="M 1120 1059 L 1120 1393 C 1120 1413 1116 1429 1110 1441 C 1103 1452 1090 1458 1071 1458 C 1051 1458 1037 1449 1028 1431 C 1018 1413 1014 1391 1014 1366 L 1014 1059 L 821 1059 L 821 1397 C 821 1418 817 1433 809 1443 C 801 1453 789 1458 772 1458 C 752 1458 737 1448 727 1430 C 716 1412 711 1388 711 1358 L 711 1059 L 518 1059 L 518 1636 L 707 1636 L 707 1540 C 715 1574 732 1600 760 1619 C 788 1637 822 1647 862 1647 C 902 1647 933 1636 955 1615 C 977 1593 991 1568 997 1540 C 1019 1611 1074 1647 1161 1647 C 1209 1647 1247 1632 1274 1602 C 1301 1572 1315 1532 1315 1481 L 1315 1059 L 1120 1059 Z M 479 1452 L 326 1452 L 325 1356 L 328 1278 C 330 1242 351 1225 389 1225 L 419 1225 L 444 1227 L 444 1063 C 417 1057 375 1055 317 1055 C 263 1055 219 1068 185 1096 C 151 1123 135 1165 135 1221 L 135 1452 L 6 1452 L 6 1636 L 479 1636 L 479 1452 Z" unicode="™" />
<glyph horiz-adv-x="846" d="M 410 -184 C 410 -202 419 -219 437 -234 C 455 -248 481 -258 514 -264 L 514 -383 C 309 -363 207 -296 207 -184 C 207 -129 229 -86 274 -55 C 319 -24 383 -6 465 0 L 487 -92 C 435 -111 410 -142 410 -184 Z" unicode="˛" />
<glyph horiz-adv-x="1664" d="M 832 1376 C 706 1376 599 1328 510 1234 C 420 1139 376 1006 376 836 C 376 673 405 538 464 432 C 522 325 609 241 724 180 L 724 0 L 88 0 L 88 196 L 536 196 C 456 225 378 295 304 406 C 229 516 192 664 192 848 C 192 1024 247 1184 358 1330 C 468 1475 626 1548 832 1548 C 1037 1548 1195 1478 1306 1338 C 1416 1198 1472 1034 1472 848 C 1472 664 1434 516 1360 406 C 1285 295 1208 225 1128 196 L 1576 196 L 1576 0 L 940 0 L 940 180 C 1054 241 1141 325 1200 432 C 1258 538 1288 673 1288 836 C 1288 974 1246 1099 1162 1210 C 1078 1320 968 1376 832 1376 Z" unicode="Ω" />
<glyph horiz-adv-x="768" d="M 297 1296 L 291 1296 C 262 1296 246 1266 242 1208 L 63 1208 C 67 1296 85 1364 119 1414 C 153 1464 197 1489 252 1489 C 280 1489 306 1484 328 1476 C 350 1467 371 1451 393 1427 C 418 1399 440 1386 460 1386 C 479 1386 493 1393 502 1407 C 510 1421 516 1446 518 1481 L 692 1481 C 688 1387 670 1316 636 1268 C 602 1220 558 1196 504 1196 C 480 1196 459 1198 441 1203 C 422 1208 402 1221 381 1243 C 362 1260 347 1273 336 1282 C 324 1291 311 1296 297 1296 Z" unicode="˜" />
<glyph horiz-adv-x="768" d="M 410 1200 L 508 1499 L 754 1499 L 616 1200 L 410 1200 Z M 115 1200 L 213 1499 L 459 1499 L 322 1200 L 115 1200 Z" unicode="˝" />
<glyph horiz-adv-x="391" d="M 348 0 L 72 0 C 60 2 55 28 55 78 L 55 1126 L 336 1126 L 336 82 C 336 60 337 42 341 26 C 344 10 346 1 348 0 Z" unicode="ı" />
<glyph horiz-adv-x="809" d="M 371 641 L 371 274 L 795 274 L 795 0 L 63 0 L 63 549 L 16 530 L 16 696 L 63 715 L 63 1634 L 371 1634 L 371 805 L 590 881 L 590 715 L 371 641 Z" unicode="Ł" />
<glyph horiz-adv-x="412" d="M 342 633 L 342 84 C 342 34 345 6 352 0 L 216 -1 L 123 -1 L 80 0 C 73 6 70 32 70 78 L 70 535 L 8 514 L 8 682 L 70 705 L 70 1538 C 70 1592 67 1624 63 1636 L 338 1636 L 342 1567 L 342 801 L 406 825 L 406 655 L 342 633 Z" unicode="ł" />
<glyph horiz-adv-x="768" d="M 682 1202 L 457 1202 L 383 1337 L 307 1202 L 88 1202 L 244 1501 L 526 1501 L 682 1202 Z" unicode="ˆ" />
<glyph horiz-adv-x="1337" d="M 725 1634 L 1321 1634 L 1321 1356 L 901 1356 L 901 954 L 1288 954 L 1288 688 L 901 688 L 901 274 L 1321 274 L 1321 0 L 723 0 L 724 45 L 724 69 L 723 59 C 702 38 667 20 619 5 C 571 -10 522 -18 473 -18 C 237 -18 101 88 63 301 C 57 334 51 408 45 524 C 39 640 37 739 37 821 C 37 933 39 1038 44 1135 C 49 1232 55 1291 63 1311 C 99 1535 234 1647 469 1647 C 525 1647 576 1640 622 1628 C 667 1616 701 1597 725 1573 L 725 1634 Z M 485 244 C 548 244 586 272 600 330 L 604 648 L 604 1068 C 604 1192 601 1265 597 1288 C 593 1310 586 1329 577 1343 C 567 1357 555 1367 539 1373 C 523 1379 504 1382 483 1382 C 459 1382 440 1378 425 1370 C 409 1362 396 1349 385 1329 C 374 1309 366 1287 362 1263 C 357 1239 353 1186 349 1104 C 345 1022 342 925 342 813 C 342 718 343 623 347 527 C 350 431 356 368 364 338 C 372 307 386 284 405 268 C 423 252 450 244 485 244 Z" unicode="Œ" />
<glyph horiz-adv-x="1266" d="M 641 78 C 623 51 593 29 550 12 C 506 -5 455 -14 395 -14 C 329 -14 272 -1 222 23 C 172 48 134 84 106 131 C 78 178 58 243 47 325 C 36 407 31 487 31 565 C 31 659 39 754 57 850 C 74 946 113 1018 174 1067 C 235 1116 314 1141 410 1141 C 459 1141 506 1132 550 1115 C 594 1098 629 1077 655 1051 C 671 1077 700 1098 742 1115 C 784 1132 833 1141 891 1141 C 977 1141 1049 1120 1106 1079 C 1162 1038 1200 979 1220 903 C 1240 827 1250 720 1250 584 L 1247 469 L 782 469 C 782 426 783 382 786 336 C 788 290 794 261 804 247 C 813 233 824 222 838 215 C 852 208 867 205 885 205 C 907 205 927 210 945 220 C 963 230 976 250 982 280 C 988 310 991 339 991 367 L 1241 367 C 1241 305 1230 244 1210 184 C 1189 124 1152 76 1099 40 C 1046 4 978 -14 895 -14 C 825 -14 770 -6 730 8 C 690 22 660 46 641 78 Z M 989 670 C 989 777 982 845 968 873 C 954 901 927 915 887 915 C 859 915 837 907 820 893 C 803 879 792 856 786 826 C 780 795 778 743 778 670 L 989 670 Z M 516 561 C 516 607 514 661 512 725 C 509 789 505 828 501 843 C 497 858 491 870 483 880 C 475 890 466 897 454 902 C 442 906 426 909 408 909 C 358 909 327 882 313 829 C 305 793 301 703 301 561 L 301 489 C 301 414 303 357 307 319 C 311 281 321 253 339 237 C 357 221 380 213 408 213 C 428 213 446 217 461 227 C 476 236 487 249 495 267 C 503 284 508 318 511 369 C 514 420 516 484 516 561 Z" unicode="œ" />
<glyph horiz-adv-x="434" d="M 410 242 L 27 618 L 27 821 L 410 1198 L 410 903 L 223 721 L 410 539 L 410 242 Z" unicode="‹" />
<glyph horiz-adv-x="434" d="M 27 242 L 27 539 L 213 721 L 27 903 L 27 1198 L 408 821 L 408 618 L 27 242 Z" unicode="›" />
<glyph horiz-adv-x="881" d="M 852 383 C 852 259 815 161 741 89 C 667 17 568 -18 442 -18 C 350 -18 273 -5 212 19 C 151 44 105 82 74 133 C 42 183 27 259 27 359 L 27 465 L 311 465 C 311 381 312 332 315 319 C 325 259 365 229 434 229 C 474 229 504 239 525 261 C 546 283 557 314 557 356 C 557 420 546 474 524 518 C 502 562 459 614 395 674 L 248 805 C 160 880 100 951 69 1018 C 38 1085 23 1166 23 1260 C 23 1381 60 1476 135 1546 C 209 1616 310 1651 436 1651 C 501 1651 558 1642 606 1624 C 654 1606 693 1581 725 1550 C 757 1518 782 1481 800 1437 C 818 1393 829 1340 835 1279 C 841 1217 844 1174 844 1149 L 557 1149 C 557 1247 548 1311 530 1342 C 512 1373 480 1389 434 1389 C 394 1389 364 1379 344 1360 C 324 1340 315 1309 315 1266 C 315 1220 327 1175 352 1131 C 377 1087 419 1039 477 989 L 596 882 C 694 794 762 713 798 641 C 834 569 852 483 852 383 Z M 139 2005 L 365 2005 L 438 1870 L 514 2005 L 735 2005 L 580 1706 L 295 1706 L 139 2005 Z" unicode="Š" />
<glyph horiz-adv-x="745" d="M 721 305 C 721 203 690 124 630 68 C 569 12 485 -16 377 -16 C 311 -16 256 -10 211 2 C 165 14 128 32 100 57 C 72 82 51 114 39 154 C 26 194 20 260 20 354 L 274 354 L 279 270 C 281 246 290 229 308 219 C 325 208 346 203 371 203 C 396 203 417 210 435 226 C 452 241 461 265 461 297 C 461 331 453 359 437 381 C 421 402 394 420 356 436 L 225 496 C 155 528 105 571 75 624 C 44 677 29 748 29 838 C 29 933 58 1008 116 1062 C 174 1116 254 1143 356 1143 C 455 1143 531 1124 585 1088 C 639 1052 672 1002 686 940 C 689 919 692 888 694 847 C 696 805 698 778 698 766 L 451 766 C 451 812 449 840 446 850 C 440 895 414 918 367 918 C 311 918 283 889 283 831 C 283 803 289 779 302 761 C 314 743 337 726 371 711 L 524 637 C 596 601 647 558 677 508 C 706 458 721 390 721 305 Z M 70 1509 L 295 1509 L 369 1374 L 444 1509 L 666 1509 L 510 1210 L 225 1210 L 70 1509 Z" unicode="š" />
<glyph horiz-adv-x="1152" d="M -8 -392 L 56 -260 C 96 -273 132 -280 164 -280 C 196 -280 222 -268 242 -246 C 262 -223 277 -178 288 -112 L 516 1224 C 553 1437 674 1544 880 1544 C 941 1544 995 1536 1042 1522 C 1088 1507 1125 1492 1152 1476 L 1088 1304 C 1008 1354 935 1380 868 1380 C 806 1380 760 1360 730 1322 C 699 1283 680 1238 672 1188 L 448 -224 C 434 -296 402 -348 350 -382 C 298 -415 240 -432 176 -432 C 136 -432 99 -428 66 -420 C 32 -412 8 -402 -8 -392 Z" unicode="∫" />
<glyph horiz-adv-x="768" d="M 84 1509 L 309 1509 L 383 1374 L 459 1509 L 680 1509 L 524 1210 L 240 1210 L 84 1509 Z" unicode="ˇ" />
<glyph horiz-adv-x="985" d="M 985 1634 L 633 612 L 633 0 L 334 0 L 334 606 L 0 1634 L 305 1634 L 448 1094 L 483 952 L 500 1006 L 690 1634 L 985 1634 Z M 774 1696 L 555 1696 L 555 1954 L 774 1954 L 774 1696 Z M 442 1696 L 225 1696 L 225 1954 L 442 1954 L 442 1696 Z" unicode="Ÿ" />
<glyph horiz-adv-x="1321" d="M 1251 0 L 946 0 L 946 369 L 1251 369 L 1251 0 Z M 813 0 L 508 0 L 508 369 L 813 369 L 813 0 Z M 373 0 L 66 0 L 66 369 L 373 369 L 373 0 Z" unicode="…" />
<glyph horiz-adv-x="838" d="M 825 0 L 18 0 L 18 248 L 481 1354 L 51 1354 L 51 1634 L 815 1634 L 815 1391 L 348 276 L 825 276 L 825 0 Z M 119 2005 L 344 2005 L 418 1870 L 494 2005 L 715 2005 L 559 1706 L 274 1706 L 119 2005 Z" unicode="Ž" />
<glyph horiz-adv-x="705" d="M 686 0 L 23 0 L 23 227 L 393 887 L 33 887 L 33 1126 L 680 1126 L 680 895 L 309 238 L 686 238 L 686 0 Z M 51 1509 L 276 1509 L 350 1374 L 426 1509 L 647 1509 L 492 1210 L 207 1210 L 51 1509 Z" unicode="ž" />
<glyph horiz-adv-x="1536" d="M 212 236 L 212 452 L 1112 792 L 212 1128 L 212 1344 L 1352 872 L 1352 708 L 212 236 Z M 212 24 L 212 216 L 1348 216 L 1348 24 L 212 24 Z" unicode="≥" />
<glyph horiz-adv-x="1372" d="M 1022 893 L 831 893 L 831 0 L 561 0 L 561 893 L 377 893 L 377 0 L 104 0 L 104 887 L 10 887 L 10 1126 L 104 1126 L 104 1368 C 104 1460 127 1528 175 1574 C 222 1619 289 1642 377 1642 C 395 1642 412 1641 428 1641 C 444 1641 470 1639 508 1636 L 508 1415 L 446 1419 C 423 1419 405 1411 393 1396 C 381 1381 375 1360 375 1333 L 375 1126 L 561 1126 L 561 1358 C 561 1451 584 1522 630 1570 C 676 1618 744 1642 834 1642 C 885 1642 920 1641 938 1639 L 961 1636 L 961 1415 L 897 1419 C 853 1419 831 1395 831 1348 L 831 1126 L 1303 1126 L 1303 82 C 1303 61 1304 42 1308 26 C 1312 10 1315 1 1317 0 L 1040 0 C 1034 1 1030 9 1027 24 C 1023 39 1022 57 1022 78 L 1022 893 Z" unicode="ﬃ" />
<glyph horiz-adv-x="664" d="M 88 -344 C 27 -344 -20 -341 -55 -336 L -53 -113 L -12 -115 L 27 -115 C 51 -115 71 -107 85 -91 C 99 -75 108 -55 111 -31 L 195 889 L 94 889 L 94 1133 L 217 1133 L 240 1376 C 247 1464 277 1532 329 1578 C 381 1624 453 1647 545 1647 C 597 1647 636 1645 660 1641 L 686 1638 L 686 1417 L 602 1423 C 573 1421 551 1412 536 1396 C 520 1379 512 1360 510 1339 L 492 1128 L 625 1128 L 623 889 L 471 889 L 383 -70 C 375 -160 346 -228 296 -274 C 245 -320 176 -344 88 -344 Z" unicode="ƒ" />
<glyph horiz-adv-x="1536" d="M 76 0 L 652 1536 L 884 1536 L 1456 0 L 76 0 Z M 352 148 L 1164 148 L 752 1256 L 352 148 Z" unicode="Δ" />
<glyph horiz-adv-x="244" d="M 424 1632 C 303 1193 224 918 186 807 C 171 765 144 674 105 534 C 65 394 17 216 -39 0 L -182 0 L -83 364 C -22 584 27 753 66 870 C 116 1032 188 1286 281 1632 L 424 1632 Z" unicode="⁄" />
<glyph horiz-adv-x="1664" d="M 832 1376 C 706 1376 599 1328 510 1234 C 420 1139 376 1006 376 836 C 376 673 405 538 464 432 C 522 325 609 241 724 180 L 724 0 L 88 0 L 88 196 L 536 196 C 456 225 378 295 304 406 C 229 516 192 664 192 848 C 192 1024 247 1184 358 1330 C 468 1475 626 1548 832 1548 C 1037 1548 1195 1478 1306 1338 C 1416 1198 1472 1034 1472 848 C 1472 664 1434 516 1360 406 C 1285 295 1208 225 1128 196 L 1576 196 L 1576 0 L 940 0 L 940 180 C 1054 241 1141 325 1200 432 C 1258 538 1288 673 1288 836 C 1288 974 1246 1099 1162 1210 C 1078 1320 968 1376 832 1376 Z" unicode="Ω" />
<glyph horiz-adv-x="1536" d="M 236 400 C 230 429 228 456 228 480 C 228 546 248 604 288 652 C 328 700 390 724 476 724 C 542 724 600 714 650 696 C 699 677 745 659 788 642 C 830 624 872 610 912 598 C 952 586 988 580 1020 580 C 1070 580 1106 590 1128 610 C 1149 630 1160 654 1160 684 L 1156 716 L 1300 716 C 1305 686 1308 660 1308 636 C 1308 569 1288 512 1248 464 C 1208 416 1145 392 1060 392 C 993 392 935 400 886 418 C 836 435 790 452 748 470 C 705 487 664 501 624 512 C 584 522 548 528 516 528 C 465 528 429 518 408 500 C 386 481 376 458 376 432 L 380 400 L 236 400 Z M 236 860 C 230 889 228 916 228 940 C 228 1006 248 1064 288 1112 C 328 1160 390 1184 476 1184 C 542 1184 600 1174 650 1156 C 699 1137 745 1119 788 1102 C 830 1084 872 1070 912 1058 C 952 1046 988 1040 1020 1040 C 1070 1040 1106 1050 1128 1070 C 1149 1090 1160 1114 1160 1144 L 1156 1176 L 1300 1176 C 1305 1146 1308 1120 1308 1096 C 1308 1029 1288 972 1248 924 C 1208 876 1145 852 1060 852 C 993 852 935 860 886 878 C 836 895 790 912 748 930 C 705 947 664 961 624 972 C 584 982 548 988 516 988 C 465 988 429 978 408 960 C 386 941 376 918 376 892 L 380 860 L 236 860 Z" unicode="≈" />
<glyph horiz-adv-x="1408" d="M 252 -424 C 214 -424 186 -413 168 -392 C 149 -370 140 -333 140 -280 C 140 -176 145 -49 156 100 C 166 233 172 309 172 328 L 176 356 L 176 1176 L 368 1176 L 368 320 C 368 258 395 210 450 176 C 504 141 564 124 628 124 C 716 124 792 146 858 190 C 923 234 973 297 1008 380 L 1008 1176 L 1200 1176 L 1200 308 L 1220 0 L 1056 0 L 1020 176 C 974 104 913 50 836 14 C 758 -22 670 -40 572 -40 C 537 -40 494 -31 444 -14 C 393 3 353 28 324 60 C 324 1 333 -56 352 -112 C 370 -168 380 -218 380 -264 C 380 -370 337 -424 252 -424 Z" unicode="μ" />
<glyph horiz-adv-x="1408" d="M 296 0 L 296 1028 L 12 1028 L 12 1176 L 1316 1176 L 1316 1028 L 996 1028 L 996 344 C 996 266 1011 213 1042 184 C 1072 154 1109 140 1152 140 C 1184 140 1210 140 1232 142 C 1253 143 1274 148 1296 156 L 1296 28 C 1264 12 1234 0 1206 -6 C 1178 -12 1138 -16 1088 -16 C 1002 -16 935 10 886 64 C 836 117 812 208 812 336 L 812 1028 L 484 1028 L 484 0 L 296 0 Z" unicode="π" />
<glyph horiz-adv-x="1536" d="M 212 404 L 212 604 L 1328 604 L 1328 404 L 212 404 Z M 212 976 L 212 1176 L 1328 1176 L 1328 976 L 212 976 Z M 548 188 L 372 188 L 996 1356 L 1168 1356 L 548 188 Z" unicode="≠" />
<glyph horiz-adv-x="1152" d="M 472 -48 L 68 756 L 472 1560 L 656 1560 L 1084 756 L 656 -48 L 472 -48 Z M 556 152 L 876 768 L 572 1356 L 252 740 L 556 152 Z" unicode="◊" />
<glyph horiz-adv-x="1536" d="M 1348 236 L 208 708 L 208 872 L 1348 1344 L 1348 1128 L 448 792 L 1348 452 L 1348 236 Z M 212 24 L 212 216 L 1348 216 L 1348 24 L 212 24 Z" unicode="≤" />
<glyph horiz-adv-x="559" d="M 537 864 L 416 864 L 416 -14 L 279 -225 L 143 -14 L 143 864 L 20 864 L 20 1069 L 143 1069 L 142 1215 L 142 1399 L 143 1624 L 418 1624 L 418 1215 L 416 1069 L 537 1069 L 537 864 Z" unicode="†" />
<glyph horiz-adv-x="1370" d="M 377 887 L 377 0 L 104 0 L 104 887 L 10 887 L 10 1126 L 104 1126 L 104 1368 C 104 1460 127 1528 175 1574 C 222 1619 289 1642 377 1642 C 395 1642 412 1641 428 1641 C 444 1641 470 1639 508 1636 L 508 1415 L 446 1419 C 423 1419 405 1411 393 1396 C 381 1381 375 1360 375 1333 L 375 1126 L 561 1126 L 561 1358 C 561 1451 584 1522 630 1570 C 676 1618 744 1642 834 1642 C 889 1642 931 1640 961 1636 L 961 1415 C 946 1417 925 1419 897 1419 C 853 1419 831 1395 831 1348 L 831 1126 L 954 1126 L 954 887 L 831 887 L 831 0 L 561 0 L 561 887 L 377 887 Z M 1311 0 L 1174 -1 L 1081 -1 L 1038 0 C 1030 6 1026 32 1026 78 L 1026 1538 C 1026 1583 1024 1616 1020 1636 L 1294 1636 L 1298 1567 L 1298 84 C 1298 34 1302 6 1311 0 Z" unicode="ﬄ" />
<glyph horiz-adv-x="748" d="M 340 1053 L 340 1397 L 10 1397 L 10 1628 L 737 1628 L 737 1397 L 403 1397 L 403 1053 C 457 1045 503 1019 543 975 C 582 931 602 881 602 823 C 602 767 582 717 544 673 C 506 629 458 604 401 596 L 401 270 L 737 270 L 737 10 L 10 10 L 10 270 L 338 270 L 338 596 C 280 605 232 631 196 675 C 159 718 141 767 141 823 C 141 881 160 931 200 975 C 239 1019 286 1045 340 1053 Z M 213 743 L 309 768 C 280 733 261 708 252 694 C 277 672 306 657 338 651 L 338 748 L 369 815 L 399 748 L 399 651 C 433 657 462 671 487 694 L 430 768 L 526 743 C 540 767 547 793 547 823 C 547 853 539 882 524 909 L 430 885 L 485 954 C 463 976 435 991 401 997 L 401 901 L 369 831 L 340 901 L 340 997 C 309 991 280 976 254 954 L 282 917 L 313 879 C 283 889 250 897 215 903 C 201 880 195 853 195 823 C 195 794 201 767 213 743 Z" unicode="" />
</font>
</defs>
</svg>
